<?xml version="1.0" standalone="no"?>
<!DOCTYPE svg PUBLIC "-//W3C//DTD SVG 1.1//EN" "http://www.w3.org/Graphics/SVG/1.1/DTD/svg11.dtd" >
<!--
2013-9-30: Created.
-->
<svg>
<metadata>
Created by iconfont
</metadata>
<defs>

<font id="iconfont" horiz-adv-x="1024" >
  <font-face
    font-family="iconfont"
    font-weight="500"
    font-stretch="normal"
    units-per-em="1024"
    ascent="896"
    descent="-128"
  />
    <missing-glyph />
    
    <glyph glyph-name="msnui-cloud-download" unicode="&#58937;" d="M960.855 176.991q0-22.404-7.617-42.119t-21.059-35.845-31.813-26.436-39.879-13.89v-1.792h-601.311q-1.792 0-2.241-0.449t-2.24-0.449-2.689 0.449-2.689 0.449h-5.376v0.896q-37.638 1.792-70.347 17.027t-56.904 40.774-38.086 59.145-13.89 71.243 13.89 70.795 37.638 58.249 55.56 41.223 68.555 18.82q6.274 58.249 32.261 108.881t66.763 88.271 93.647 59.145 112.913 21.508q63.627 0 120.082-24.196t98.127-66.314 65.866-98.127 24.196-119.635q0-28.676-5.376-56.009t-15.235-52.424q1.792 0 4.033 0.449t4.033 0.449q25.092 0 46.599-9.41t37.638-25.54 25.54-38.086 9.41-47.048zM666.025 309.62q10.754 17.923 6.274 20.611t-22.404 2.689q-10.754 0-30.020 0.449t-29.125 0.449q-14.339 0-18.371 11.65t-4.033 32.261q0 28.676-0.449 46.151t-0.449 38.086q0 23.3-3.136 34.053t-25.54 10.754q-16.13 0-24.196-0.449t-22.404-0.449q-24.196 0-30.020-13.89t-5.825-27.333v-28.676q0-11.65 0.449-22.404t0.449-22.404v-25.989q0-14.338-3.585-21.955t-17.027-7.617q-5.376-0.896-14.786-1.344t-19.267-0.896-18.819-0.449h-14.339q-18.819 0-22.404-11.65t11.65-29.573q15.235-18.82 32.709-40.774t34.501-44.359 32.709-43.463 29.125-36.294q24.196-26.884 46.599 0.896 13.443 15.235 31.365 39.43t36.743 50.632 35.845 51.080 27.781 40.774z"  horiz-adv-x="1024" />

    
    <glyph glyph-name="biaodan" unicode="&#59084;" d="M256 493.714286l512 0 0-73.142857-512 0 0 73.142857ZM256 347.428571l512 0 0-73.142857-512 0 0 73.142857ZM256 201.142857l512 0 0-73.142857-512 0 0 73.142857ZM914.285714 822.857143l-146.285714 0L768 859.428571l-109.714286 0 0-36.571429L365.714286 822.857143 365.714286 859.428571l-109.714286 0 0-36.571429L109.714286 822.857143c-20.214857 0-36.571429-16.356571-36.571429-36.571429l0-841.142857c0-20.214857 16.356571-36.571429 36.571429-36.571429l804.571429 0c20.214857 0 36.571429 16.356571 36.571429 36.571429L950.857143 786.285714C950.857143 806.500571 934.500571 822.857143 914.285714 822.857143zM256 749.714286l0-36.571429 109.714286 0L365.714286 749.714286l292.571429 0 0-36.571429 109.714286 0L768 749.714286l109.714286 0 0-109.714286L146.285714 640 146.285714 749.714286 256 749.714286zM146.285714-18.285714 146.285714 603.428571l731.428571 0 0-621.714286L146.285714-18.285714z"  horiz-adv-x="1024" />

    
    <glyph glyph-name="tuikuan" unicode="&#58881;" d="M885.935528 680.093649c0 7.506974-1.37737 14.623046-3.327792 21.50478l3.101641 1.565658-5.799076 7.126304c-11.882632 28.786627-40.166815 49.070602-73.240071 49.070602L216.559221 759.360993c-15.095813 0-29.060873-4.449335-41.069371-11.772115l-1.039679 0.582261-1.706875-2.072195c-21.354354-14.202467-35.455513-38.438451-35.455513-66.005296l0-590.119195c0-43.774993 35.489282-79.261205 79.272461-79.261205l590.112032 0c43.776016 0 79.264275 35.487236 79.264275 79.261205l0 66.010413-0.01228 0c-0.056282 11.470239-9.361205 20.756743-20.857027 20.756743-11.478426 0-20.787442-9.286504-20.844747-20.756743l-0.007163 0 0-0.052189c0-0.017396-0.00307-0.028653-0.00307-0.052189 0-0.020466 0.00307-0.029676 0.00307-0.054235l0-61.668525c0-23.042809-18.682501-41.72224-41.7161-41.72224L425.613514 52.435489c-0.00307 0-0.004093 0.001023-0.007163 0.001023-0.021489 0-0.032746-0.001023-0.052189-0.001023l-32.220842 0c-0.017396 0-0.037862 0.001023-0.054235 0.001023-0.00307 0-0.004093-0.001023-0.007163-0.001023L220.735333 52.435489c-23.044856 0-41.718147 18.680455-41.718147 41.72224L179.017186 675.920606c0 6.382361 1.547239 12.359492 4.108574 17.767666l328.486406-179.393763 331.998393 167.622672c0.286526-1.973958 0.604774-3.942799 0.604774-5.996574l0-354.12432 0.007163 0c0-0.025583-0.00921-0.053212-0.00921-0.076748 0-11.522428 9.341762-20.869307 20.85498-20.869307 11.530614 0 20.869307 9.346879 20.869307 20.869307 0 0.022513-0.007163 0.051165-0.007163 0.076748l0.007163 0L885.937574 680.093649zM509.23298 561.121 229.096768 717.639776l573.401442 0c4.421706 0 8.600889-0.874927 12.602016-2.149966L509.23298 561.121zM639.395482 267.238716l0 0.189312c11.458983 0 20.748556 9.31004 20.748556 20.774139 0 11.461029-9.28855 20.74958-20.748556 20.74958l-95.9237 0.010233 93.364411 109.761869-0.12996 0.149403c8.580422 7.589862 9.332553 20.73116 1.741667 29.28907-7.622608 8.597819-20.739347 9.373485-29.306466 1.762133l-87.993077-102.386902L431.102528 454.405513c-8.570189 7.614421-21.686928 6.836709-29.305443-1.763157-7.591909-8.558933-6.838755-21.694091 1.741667-29.287023l-0.12996-0.146333 98.349959-113.25953 0-0.986467-98.844216 0.075725 0-0.086981c-11.461029 0-20.748556-9.309016-20.748556-20.770046 0-11.458983 9.287527-20.748556 20.748556-20.748556l0-0.107447 98.844216-0.075725 0-42.125423-98.856495 0.075725 0-0.085958c-11.45796 0-20.74958-9.329483-20.74958-20.770046 0-11.478426 9.29162-20.772093 20.74958-20.772093l0-0.082888 98.856495-0.075725 0-48.853661 0.097214 0c0-11.43647 9.299807-20.727067 20.760836-20.727067 11.461029 0 20.75879 9.290597 20.75879 20.727067l0.097214 0 0 48.853661 95.910397-0.010233 0 0.168846c11.461029 0 20.750603 9.335622 20.750603 20.775162 0 11.479449-9.290597 20.766976-20.750603 20.766976l-95.910397 0.010233 0 42.125423L639.395482 267.238716z"  horiz-adv-x="1024" />

    
    <glyph glyph-name="statistic" unicode="&#58899;" d="M144.065 78.191h769.315v-63.514h-769.315v63.514zM143.416 786.75h63.558v-764.189h-63.558v764.189zM492.728 698.109h63.558v-586.905h-63.558v586.905zM684.331 548.602h63.558v-437.398h-63.558v437.398zM301.254 400.714h63.558v-289.51h-63.558v289.51z"  horiz-adv-x="1024" />

    
    <glyph glyph-name="goods" unicode="&#58905;" d="M749.220285-63.52454599999999L274.789948-63.52454599999999c-51.92051 0-99.466386 40.037878-108.315938 91.192955l-68.476581 414.905638c-4.470825 26.03905 2.27174 52.176336 18.532075 71.474868 16.235776 19.296485 40.838104 30.356378 67.419506 30.356378L840.097038 544.405293c26.643823 0 51.251268-11.087523 67.481927-30.385031 16.229636-19.301602 22.939455-45.438888 18.370393-71.703065l-68.409043-414.423661C848.623225-23.48666800000001 801.081443-63.52454599999999 749.220285-63.52454599999999L749.220285-63.52454599999999zM183.947987 480.466052c-7.825222 0-14.44192-2.681062-18.561751-7.607258-4.1536-4.919033-5.689582-11.916401-4.378727-19.681248l68.506257-414.901545c3.452635-20.067035 24.636097-37.897122 45.275159-37.897122l474.430336 0c20.643156 0 41.827641 17.863856 45.342698 38.151925l68.410066 414.427754c1.375324 7.984858-0.160659 14.951527-4.28049 19.871583-4.154623 4.920056-10.770298 7.635911-18.59552 7.635911L183.947987 480.466052 183.947987 480.466052zM318.406329 288.621722c-35.274388 0-63.937195 28.66383-63.937195 63.910589 0 35.239596 28.662807 63.902402 63.937195 63.902402 35.210943 0 63.874773-28.66383 63.874773-63.902402C382.281101 317.31932200000006 353.617271 288.621722 318.406329 288.621722L318.406329 288.621722zM318.406329 352.53231100000005c0 0-0.063445 0-0.097214-0.033769l0.063445-31.921014L318.406329 352.53231100000005 318.406329 352.53231100000005zM703.688275 288.621722c-35.240619 0-63.904449 28.66383-63.904449 63.910589 0 35.239596 28.664853 63.902402 63.904449 63.902402 35.244712 0 63.907519-28.66383 63.907519-63.902402C767.595794 317.31932200000006 738.932987 288.621722 703.688275 288.621722L703.688275 288.621722zM703.722044 352.53231100000005l-0.064468 0 0.029676-31.955806L703.722044 352.53231100000005 703.722044 352.53231100000005zM735.671711 575.525058c-17.669428 0-31.949666 14.314007-31.949666 31.954783 0 91.444689-102.091166 159.762657-193.408965 159.762657-93.396133 0-190.019775-59.624982-190.019775-159.38301 0-17.633612-14.31503-31.949666-31.954783-31.949666-17.639752 0-31.954783 14.31503-31.954783 31.949666 0 139.763161 129.124869 223.286436 253.957992 223.286436 121.708969 0 257.317507-91.865267 257.317507-223.666082C767.626493 589.839065 753.345232 575.525058 735.671711 575.525058L735.671711 575.525058zM735.671711 575.525058"  horiz-adv-x="1024" />

    
    <glyph glyph-name="xuanzexiangmu" unicode="&#59372;" d="M484.646514 670.822494l475.048413 0 0-108.793822-475.048413 0 0 108.793822ZM484.646514 438.396911l475.048413 0 0-108.793822-475.048413 0 0 108.793822ZM484.646514 205.972351l475.048413 0 0-108.794845-475.048413 0 0 108.794845ZM64.303027 640.996189 116.22763 692.921815 190.406073 618.743372 302.910403 731.246679 352.55508 681.600979 189.363324 518.410246ZM64.303027 400.148795 116.22763 452.073398 190.406073 377.895979 302.910403 490.399285 352.55508 440.792471 189.363324 277.599691ZM64.303027 159.301402 116.22763 211.226005 190.406073 137.048585 302.910403 249.551892 352.55508 199.945077 189.363324 36.753321Z"  horiz-adv-x="1024" />

    
    <glyph glyph-name="yunshupeisong" unicode="&#58912;" d="M780.190135 560.179558 611.66593 560.179558l0 62.753229c0 29.514197-14.223956 52.292993-40.964994 52.292993L112.452141 675.225781c-26.736944 0-48.489364-24.01188-48.489364-53.525054L63.962777 224.708064c0-29.510104 15.392572-51.500954 42.130539-51.500954l115.860774 0c0 0 14.32424-104.588033 115.859751-104.588033 109.123326 0 126.392642 98.373495 126.392642 104.588033l105.328907 0c0.864694 0-0.858554-0.051165 0 0l0 0 63.196321 0c0 0 10.532891-0.010233 10.532891 0 6.954389-69.25634 55.202253-105.062847 126.392642-104.588033 126.21868 0.840134 115.859751 115.045199 115.859751 115.045199l42.131563 0c27.353998 0 31.598672 5.859451 31.598672 31.376615l0 167.341263L780.190135 560.179558zM337.813842 99.995691c-40.177048 0.37146-84.261079 36.132942-84.261079 83.668585 0 50.356898 37.193087 90.766236 84.261079 94.129844 50.325176 3.594875 95.26776-42.433438 95.26776-92.790336C430.714695 122.320139 380.405893 99.52497 337.813842 99.995691zM580.068282 204.582701 464.206484 204.582701c-14.541181 60.242036-61.632709 104.588033-126.392642 104.588033-64.765049 0-101.316523-44.344974-115.859751-104.588033L95.561449 204.582701 95.561449 643.851213l484.506832 0L580.068282 204.582701zM769.658268 99.995691c-50.456159 0-94.15952 34.652218-94.15952 85.009116 0 50.356898 45.86663 92.184539 83.626629 92.790336 66.523089 1.067308 94.794993-43.772946 94.794993-94.129844C853.919347 133.307378 820.11238 99.995691 769.658268 99.995691L769.658268 99.995691zM885.518019 215.04089c-1.693572 44.270273-46.402843 96.207156-126.392642 94.129844-66.443271-1.725294-115.860774-52.752458-115.860774-104.588033l-31.598672 0c0.316202 2.465145 0 18.352997 0 20.916379L611.66593 528.803967l157.991314 0 157.991314-156.880003 0-156.88205L885.518019 215.041914z"  horiz-adv-x="1024" />

    
    <glyph glyph-name="caiwuguanli" unicode="&#58915;" d="M181.032076 450.188468c18.866696 0 34.133402 15.283078 34.133402 34.133402 0 172.216293 140.099828 312.316122 312.333518 312.316122 172.19992 0 312.299749-140.099828 312.299749-312.316122 0-59.600423-16.833387-117.532857-48.700165-167.550017-10.133801-15.900132-5.433756-36.999682 10.466376-47.117111 5.66707-3.63376 12.033058-5.349845 18.299785-5.349845 11.266601 0 22.333658 5.583159 28.833699 15.799848 38.833447 60.98291 59.367109 131.600247 59.367109 204.216101 0 209.850425-170.733523 380.582925-380.566552 380.582925-209.866798 0-380.600321-170.733523-380.600321-380.582925C146.898675 465.47257 162.16538 450.188468 181.032076 450.188468zM641.254829 667.040355c-10.512425 10.512425-27.552519 10.512425-38.051641 0l-75.312266-75.31022-76.112492 76.112492c-10.512425 10.510378-27.539216 10.510378-38.051641 0-10.510378-10.510378-10.510378-27.552519 0-38.047548l87.160105-87.160105c-0.031722-0.537236-0.310062-0.995677-0.310062-1.542122l0-26.907836-67.271126 0c-14.862499 0-26.910906-12.048407-26.910906-26.910906s12.047384-26.907836 26.910906-26.907836l67.271126 0 0-53.816696-67.271126 0c-14.862499 0-26.910906-12.050454-26.910906-26.907836 0-14.860453 12.047384-26.909883 26.910906-26.909883l67.271126 0 0-80.724533c0-14.862499 12.048407-26.90579 26.910906-26.90579 14.858406 0 26.90579 12.043291 26.90579 26.90579l0 80.724533 67.271126 0c14.860453 0 26.909883 12.050454 26.909883 26.909883 0 14.858406-12.050454 26.907836-26.909883 26.907836l-67.271126 0 0 53.816696 67.271126 0c14.860453 0 26.909883 12.045337 26.909883 26.907836s-12.050454 26.910906-26.909883 26.910906l-67.271126 0 0 26.907836c0 0.305969-0.164752 0.558725-0.174985 0.862647l87.037309 87.037309C651.765207 639.501138 651.765207 656.529977 641.254829 667.040355zM951.464987 166.189276c-94.500281 19.399839-201.033619 78.899978-201.233164 78.899978-46.566572 31.133068-83.166141 46.266743-111.899556 46.266743-24.200168 0-44.366464-10.999518-55.266721-30.18344-14.100136-24.699542-9.533121-57.700143 2.200108-77.532841 5.399987-9.05012 15.932878-24.600281 27.132964-40.71633-232.966912 14.616906-273.399787 67.900459-319.600015 128.783085-14.433734 18.983353-29.333072 38.600133-49.800219 58.416458-37.733393 36.482913-68.433602 53.466726-96.632851 53.466726-21.833261 0-40.666188-10.383488-53.066613-29.233811-25.566282-38.933731-17.032932-109.200074-7.766894-130.599454 105.099686-242.716974 358.76706-285.133016 369.499495-286.816355 1.766226-0.283456 3.533476-0.416486 5.299703-0.416486l484.266355 0c18.866696 0 34.133402 15.283078 34.133402 34.133402L978.73098 132.755816C978.732004 148.955776 967.331349 162.939255 951.464987 166.189276zM910.465201 4.789329 463.365326 4.789329c-24.166399 4.666276-230.233662 49.866734-315.066769 245.800195-4.700045 12.716626-5.500271 51.349505 0.766456 64.183811 5.566786-1.666966 20.033265-8.167007 46.466288-33.716916 16.733103-16.183588 29.433356-32.91669 42.866297-50.633191 58.566884-77.116355 113.833605-149.966547 441.432805-158.76698 14.532995-0.816598 25.066909 6.733355 31.133068 18.200524 6.066159 11.499915 5.066389 25.449625-2.566452 35.966143-14.399965 19.816325-53.999868 75.100442-64.266699 92.416829-0.533143 1.033539-0.967024 2.683109-1.233084 4.400217 9.233292-1.550309 30.499641-8.300037 71.566966-35.649941 4.333702-2.449795 98.999758-55.56655 195.999976-81.233116L910.465201 4.789329 910.465201 4.789329z"  horiz-adv-x="1024" />

    
    <glyph glyph-name="tuangou" unicode="&#58966;" d="M824.994 744.274c13.208 0 25.626-5.143 34.966-14.483 9.339-9.339 14.483-21.756 14.482-34.964l0-624.11c0-27.266-22.183-49.448-49.449-49.448L200.884 21.269c-27.266 0-49.448 22.182-49.448 49.448L151.436 694.828c0 27.265 22.182 49.446 49.448 49.446L824.994 744.274M824.994 806.274l-624.11 0c-61.552 0-111.448-49.896-111.448-111.446l0-624.111c0-61.552 49.896-111.448 111.448-111.448l624.109 0c61.552 0 111.449 49.896 111.449 111.448l0 624.11C936.443 756.378 886.545 806.274 824.994 806.274L824.994 806.274zM512.938 345.903c-68.507 0-132.914 26.678-181.356 75.12-48.441 48.442-75.12 112.849-75.12 181.355 0 17.121 13.879 31 31 31s31-13.879 31-31c0-107.234 87.241-194.476 194.476-194.476s194.477 87.241 194.477 194.476c0 17.121 13.879 31 31 31s31-13.879 31-31c0-68.508-26.678-132.915-75.12-181.356C645.853 372.581 581.445 345.903 512.938 345.903z"  horiz-adv-x="1024" />

    
    <glyph glyph-name="dingdan1" unicode="&#59191;" d="M800.037628-32.016126 223.962372-32.016126c-52.980346 0-95.983874 43.003528-95.983874 95.983874l0 639.892491c0 52.980346 43.003528 95.983874 95.983874 95.983874l575.903242 0c52.980346 0 95.983874-43.003528 95.983874-95.983874l0-639.892491C896.021502 11.159415 852.84596-32.016126 800.037628-32.016126zM223.962372 736.026877c-17.545439 0-31.994625-14.449185-31.994625-31.994625l0-639.892491c0-17.717453 14.449185-31.994625 31.994625-31.994625l575.903242 0c17.717453 0 31.994625 14.277171 31.994625 31.994625l0 639.892491c0 17.545439-14.277171 31.994625-31.994625 31.994625L223.962372 736.026877zM640.924576 351.231312 287.779607 351.231312c-17.717453 0-31.994625 14.277171-31.994625 31.994625 0 17.717453 14.277171 31.994625 31.994625 31.994625l353.144969 0c17.717453 0 31.994625-14.277171 31.994625-31.994625C672.9192 365.508483 658.642029 351.231312 640.924576 351.231312zM734.84428 160.467663l-447.236687 0c-17.717453 0-31.994625 14.277171-31.994625 31.994625s14.277171 31.994625 31.994625 31.994625l447.236687 0c17.717453 0 31.994625-14.277171 31.994625-31.994625S752.561734 160.467663 734.84428 160.467663zM255.784982 590.674954c0-26.490173 21.501764-47.991937 47.991937-47.991937s47.991937 21.501764 47.991937 47.991937-21.501764 47.991937-47.991937 47.991937S255.784982 617.165127 255.784982 590.674954zM463.061986 590.674954c0-26.490173 21.501764-47.991937 47.991937-47.991937s47.991937 21.501764 47.991937 47.991937-21.501764 47.991937-47.991937 47.991937S463.061986 617.165127 463.061986 590.674954zM671.199059 590.674954c0-26.490173 21.501764-47.991937 47.991937-47.991937s47.991937 21.501764 47.991937 47.991937-21.501764 47.991937-47.991937 47.991937S671.199059 617.165127 671.199059 590.674954z"  horiz-adv-x="1024" />

    
    <glyph glyph-name="kuaijieyingyon" unicode="&#59004;" d="M944.728 517.932c-1.574 5.082-6.272 8.505-11.599 8.424l-356.266-5.298 336.702 287.274c3.805 3.261 5.161 8.56 3.451 13.233-1.739 4.755-6.223 7.852-11.225 7.852h-450.801c-3.749 0-7.281-1.793-9.565-4.809l-363.467-484.635c-2.718-3.667-3.153-8.556-1.060-12.605 2.065-4.049 6.277-6.548 10.843-6.467l227.33 3.669-236.733-367c-3.043-4.754-2.389-11.062 1.684-15.029 4.022-3.965 10.326-4.508 15.026-1.387l840.927 563.33c4.404 2.961 6.357 8.393 4.753 13.447zM222.008 82.377l178.174 275.125c2.39 3.724 2.581 8.398 0.407 12.283-2.119 3.831-6.224 6.25-10.654 6.167 0 0-220.265-3.587-220.755-3.587-0.054 0.081-0.054 0.081-0.108 0.163 0.326 0.463 305.046 406.673 305.046 406.673h327.925l-338.494-288.823c-3.831-3.261-5.216-8.558-3.45-13.314 1.793-4.672 6.331-7.773 11.359-7.688l333.686 4.889-583.135-391.888z"  horiz-adv-x="1024" />

    
    <glyph glyph-name="wuliupeisong" unicode="&#58923;" d="M511.609097-65.619254M778.542612 599.283158l0-268.057105-325.953723 0L452.588889 599.283158 778.542612 599.283158M806.76642 627.50799 424.364057 627.50799l0-324.520071 382.402363 0L806.76642 627.50799 806.76642 627.50799 806.76642 627.50799zM806.76642 627.50799M590.218456 230.611517 445.034842 230.611517c-7.791453 0-14.118556 6.312776-14.118556 14.115486 0 7.792477 6.327102 14.105253 14.118556 14.105253l145.184637 0c7.80578 0 14.105253-6.312776 14.105253-14.105253C604.324732 236.924293 598.025259 230.611517 590.218456 230.611517L590.218456 230.611517zM590.218456 230.611517M703.645808 247.671055c21.589714 0 39.175231-17.560958 39.175231-39.136346 0-21.603017-17.58654-39.178301-39.175231-39.178301-21.577434 0-39.110763 17.575284-39.110763 39.178301C664.534022 230.110097 682.06735 247.671055 703.645808 247.671055M703.645808 275.892817c-37.130665 0-67.332525-30.132274-67.332525-67.361177 0-37.21253 30.201859-67.399039 67.332525-67.399039 37.292348 0 67.400063 30.18651 67.400063 67.399039C771.044848 245.760542 740.938156 275.892817 703.645808 275.892817L703.645808 275.892817 703.645808 275.892817zM703.645808 275.892817M361.297696 494.543675l0-165.242462c-7.915273 1.588171-16.012695 2.38328-24.207331 2.38328-54.580083 0-101.214193-35.221176-117.229958-85.254709l-23.762193 0 0 120.668267 65.002456 127.444601L361.297696 494.542652M389.521504 522.767484 243.819075 522.767484l-75.94467-148.878772 0-155.683758 74.788334 0c4.879124 47.87538 45.336558 85.254709 94.427626 85.254709 19.384489 0 37.377282-5.811356 52.432163-15.763009L389.522528 522.767484 389.521504 522.767484 389.521504 522.767484zM389.521504 522.767484M337.089341 247.671055c21.589714 0 39.178301-17.560958 39.178301-39.136346 0-21.603017-17.588587-39.178301-39.178301-39.178301-21.578458 0-39.111786 17.575284-39.111786 39.178301C297.977555 230.110097 315.510884 247.671055 337.089341 247.671055M337.089341 275.892817c-37.186947 0-67.332525-30.132274-67.332525-67.361177 0-37.21253 30.145577-67.399039 67.332525-67.399039 37.240159 0 67.400063 30.18651 67.400063 67.399039C404.489404 245.760542 374.329501 275.892817 337.089341 275.892817L337.089341 275.892817 337.089341 275.892817zM337.089341 275.892817M511.508813-63.100898c-60.406788 0-119.013581 11.831466-174.192298 35.164894-53.289694 22.535249-101.146655 54.793954-142.240585 95.880721-41.094954 41.086767-73.359798 88.934518-95.89914 142.213979-23.338544 55.169507-35.172057 113.765043-35.172057 174.161598s11.833513 118.993115 35.172057 174.161598c22.540366 53.279461 54.80521 101.128235 95.89914 142.213979 41.09393 41.085744 88.950891 73.344448 142.240585 95.880721 55.178717 23.333428 113.784486 35.164894 174.192298 35.164894 60.406788 0 119.013581-11.831466 174.192298-35.164894 53.289694-22.535249 101.146655-54.794977 142.240585-95.880721 41.09393-41.086767 73.359798-88.934518 95.89914-142.213979 23.339568-55.168484 35.173081-113.765043 35.173081-174.161598 0-81.07041-21.915126-160.486134-63.375399-229.661633-3.52836-5.888104-11.165294-7.79964-17.050328-4.27128-5.888104 3.52836-7.79964 11.163247-4.27128 17.050328 39.146579 65.315588 59.838853 140.312676 59.838853 216.882586 0 233.002728-189.599196 422.564062-422.646949 422.564062-233.048777 0-422.646949-189.561333-422.646949-422.564062s189.598172-422.564062 422.646949-422.564062c85.523839 0 167.896918 25.402553 238.213403 73.463152 5.669116 3.872191 13.402241 2.417049 17.275455-3.247974 3.873214-5.668093 2.419096-13.402241-3.247974-17.275455C689.281659-36.199201 602.059132-63.100898 511.508813-63.100898z"  horiz-adv-x="1024" />

    
    <glyph glyph-name="zhaopiantubiao" unicode="&#58996;" d="M880.925932 786.701688 143.004483 786.701688c-50.470485 0-91.529623-41.060161-91.529623-91.5286l0-624.384603c0-50.469462 41.059138-91.529623 91.529623-91.529623l737.916333 0c50.469462 0 91.5286 41.060161 91.5286 91.529623L972.449415 695.173089C972.449415 745.641527 931.393347 786.701688 880.925932 786.701688zM903.003763 70.765973c0-12.161994-9.892301-22.057365-22.053272-22.057365l-737.967498 0c-12.165064 0-22.061458 9.893324-22.061458 22.051225L120.921535 193.520761c32.617885-21.345144 79.719646-43.771923 133.60695-43.771923 68.337411 0 139.983171 56.31561 215.864396 115.961058 75.176167 59.081607 152.911622 120.176057 218.776725 120.176057 111.995747 0 202.740494-93.228311 213.834156-105.10071L903.003763 70.765973zM903.003763 374.05551c-50.093908 38.879496-125.101229 81.307817-213.834156 81.307817-89.920986 0-177.264263-68.660776-261.794471-135.106094-63.205531-49.674353-128.567167-101.037161-172.84665-101.037161-60.257385 0-112.221898 42.355667-133.60695 62.60178L120.921535 695.198671c0 12.160971 9.896394 22.056342 22.061458 22.056342l737.967498 0c12.160971 0 22.053272-9.895371 22.053272-22.056342L903.003763 374.05551zM341.367273 616.392838c-66.184375 0-120.030747-53.844326-120.030747-120.029724 0-66.186422 53.846372-120.029724 120.030747-120.029724 66.185398 0 120.030747 53.844326 120.030747 120.029724C461.39802 562.548512 407.552671 616.392838 341.367273 616.392838zM341.792968 446.417585c-27.717272 0-50.26787 22.546505-50.26787 50.262754 0 27.717272 22.550599 50.266847 50.26787 50.266847 27.714202 0 50.261731-22.549575 50.261731-50.266847C392.054699 468.965114 369.50717 446.417585 341.792968 446.417585z"  horiz-adv-x="1024" />

    
    <glyph glyph-name="042029" unicode="&#58934;" d="M766.994 642.422v53.637c0 34.685-23.514 61.86-53.535 61.86h-132.789l-47.364 58.398c-5.187 6.394-13.023 10.111-21.307 10.111s-16.129-3.715-21.307-10.111l-47.364-58.398h-132.789c-30.020 0-53.535-27.172-53.535-61.86v-53.637c-51.666-9.861-90.865-55.36-90.865-109.914v-478.971c0-61.746 50.178-111.971 111.861-111.971h468.006c61.674 0 111.852 50.226 111.852 111.971v478.971c0 54.562-39.198 100.054-90.865 109.914M311.6 696.058c0 3.7 0.996 6.459 1.851 7.938h142.991c8.287 0 16.118 3.726 21.307 10.111l34.251 42.23 34.251-42.23c5.181-6.386 13.023-10.111 21.3-10.111h142.997c0.846-1.479 1.841-4.239 1.841-7.938v-51.588h-400.791v51.588zM803.264 53.536c0-32.017-25.685-58.054-57.258-58.054h-468.006c-31.58 0-57.265 26.031-57.265 58.054v478.971c0 32.017 25.685 58.054 57.265 58.054h468.006c31.572 0 57.258-26.038 57.258-58.054v-478.971zM279.456 424.092h202.66c15.074 0 27.301 12.066 27.301 26.955s-12.226 26.963-27.301 26.963h-202.66c-15.074 0-27.301-12.073-27.301-26.963s12.226-26.955 27.301-26.955M744.544 319.978h-465.086c-15.074 0-27.301-12.066-27.301-26.955s12.226-26.955 27.301-26.955h465.086c15.084 0 27.301 12.066 27.301 26.955s-12.218 26.955-27.301 26.955M744.544 161.956h-465.086c-15.074 0-27.301-12.066-27.301-26.955 0-14.896 12.226-26.963 27.301-26.963h465.086c15.084 0 27.301 12.066 27.301 26.963 0 14.89-12.218 26.955-27.301 26.955z"  horiz-adv-x="1024" />

    
    <glyph glyph-name="shouyeshouye" unicode="&#58961;" d="M1007.072 353.52L512.016 816.848 16.96 354.88c-9.68-9.04-10.224-24.24-1.168-33.92 9.04-9.68 24.24-10.224 33.92-1.168l462.272 431.36 462.288-432.672c4.64-4.336 10.528-6.48 16.4-6.48 6.4 0 12.8 2.544 17.52 7.6C1017.248 329.28 1016.752 344.46400000000006 1007.072 353.52zM856 344c-13.248 0-24-10.752-24-24l0-368L640-48 640 208 384 208l0-256L192-48 192 320c0 13.248-10.736 24-24 24S144 333.24800000000005 144 320l0-416 288 0L432 160l160 0 0-256 288 0L880 320C880 333.24800000000005 869.248 344 856 344zM688 688l144 0 0-128c0-13.264 10.752-24 24-24S880 546.736 880 560L880 736 688 736c-13.248 0-24-10.736-24-24S674.752 688 688 688z"  horiz-adv-x="1024" />

    
    <glyph glyph-name="icon-choose" unicode="&#58976;" d="M945.013 879.555h-881.299c-62.95 0-62.95-63.933-62.95-62.95v-881.3c0-62.95 62.95-62.95 62.95-62.95h881.3c0-0.983 62.951 0 62.951 62.95l0 881.3c-0.985 0.984 0.984 62.95-62.952 62.95M945.013-64.695h-881.299v881.3h881.3l-0-881.3zM189.614 438.905h125.9v-125.9h-125.9v125.9zM441.415 438.905h125.899v-125.9h-125.899v125.9zM693.213 438.905h125.9v-125.9h-125.9v125.9z"  horiz-adv-x="1024" />

    
    <glyph glyph-name="peisong2" unicode="&#59073;" d="M585.536 695.424C585.216 703.04 582.528 709.76 577.92 715.776 569.344 726.72 557.76 730.112 544.32 730.048 387.456 729.92 230.592 729.984 73.792 729.984c-2.688 0-5.312-0.128-7.936-0.32C48.256 728.448 33.984 714.24 32.64 696.64 32.384 693.632 32.256 690.688 32.256 687.616c0-167.808 0.192-335.616-0.256-503.488-0.128-27.136 17.344-44.096 43.136-42.88 20.16 1.024 40.512 0.192 60.736 0.192 2.048 0 4.032 0 6.464 0 10.56 64.192 60.736 107.2 114.368 111.04 79.872 5.824 126.08-35.84 146.24-110.784 0.064 0 0.64-0.192 1.216-0.192 48.256 0 96.512-0.128 144.768 0.192 5.504 0 11.456 1.344 16.32 3.84 14.976 7.424 20.544 20.352 20.544 36.736C585.6 351.232 585.664 520.192 585.664 689.152 585.664 691.2 585.664 693.312 585.536 695.424zM991.424 370.24c-3.84 25.664-14.912 48.256-29.952 68.992-13.44 18.496-27.328 36.736-41.28 54.848-17.792 23.296-35.712 46.528-54.08 69.376-11.136 13.888-26.176 19.584-44.032 19.52-52.736-0.192-105.536-0.064-158.4-0.128-4.48-0.064-9.152-0.384-13.44-1.536-17.472-4.672-27.264-18.56-27.264-38.336 0-120.512 0-241.088 0-361.6 0-2.432 0-4.864 0.256-7.296 1.856-18.24 18.688-33.344 36.16-31.936 5.184 31.744 19.776 58.752 44.224 79.936 24.768 21.376 53.824 31.808 86.464 31.808 53.952 0.128 116.608-38.656 128.896-112.448 7.616 0 15.36-0.064 23.04 0.064 6.976 0.128 14.208-0.448 20.928 1.024 17.92 3.84 28.864 18.368 28.864 37.632 0.064 60.352 0 120.768 0 181.056C992 364.16 991.872 367.296 991.424 370.24zM733.76 362.176c0 49.024 0 97.664 0 147.392 2.176 0 4.352 0 6.592 0 25.856 0 51.84-0.32 77.76 0.128 9.216 0.192 16-3.392 20.928-10.176 27.2-37.248 54.272-74.624 80.896-112.32 4.416-6.336 6.72-14.208 9.92-21.44 0.448-0.896 0.064-2.176 0.064-3.584C864.512 362.176 799.424 362.176 733.76 362.176zM272.256 207.616c-47.168 0.128-85.248-37.568-85.312-84.736-0.064-46.976 37.952-84.928 85.12-84.928 47.104 0 85.312 38.144 85.184 85.056C357.184 169.664 319.296 207.424 272.256 207.616zM789.568 207.616c-46.976 0.448-85.568-37.504-85.824-84.416-0.256-46.848 37.76-84.928 84.992-85.248 46.784-0.256 84.864 37.248 85.312 84.16C874.624 169.088 836.992 207.168 789.568 207.616z"  horiz-adv-x="1024" />

    
    <glyph glyph-name="sousuokuang" unicode="&#58935;" d="M468.109885-26.338622c-249.561869 0-452.596052 203.032136-452.596052 452.576609C15.513834 675.822368 218.548016 878.856551 468.109885 878.856551c249.564939 0 452.600145-203.034183 452.600145-452.619588C920.710031 176.693514 717.700407-26.338622 468.109885-26.338622L468.109885-26.338622zM468.109885 833.120904C243.769444 833.120904 61.248458 650.599917 61.248458 426.236963c0-224.346581 182.520987-406.843008 406.860405-406.843008 224.369094 0 406.865521 182.496427 406.865521 406.843008C874.975407 650.599917 692.478979 833.120904 468.109885 833.120904L468.109885 833.120904zM468.109885 833.120904M985.626529-110.855528c-5.599532 0-11.226692 2.058892-15.663748 6.198166L753.739205 98.330772c-9.191336 8.641821-9.671267 23.13593-1.030469 32.330336 8.66945 9.191336 23.143093 9.629311 32.334429 1.031493l216.223576-202.986087c9.196453-8.643867 9.676383-23.144116 1.031493-32.336476C997.818199-108.433362 991.733621-110.855528 985.626529-110.855528L985.626529-110.855528zM985.626529-110.855528M210.912106 545.200402c3.125177-1.868557 6.558369-2.7486 9.949606-2.7486 6.678096 0 13.164834 3.414773 16.823154 9.555633 55.520501 93.473905 157.461241 151.551648 266.039145 151.551648 10.796904 0 19.532869 8.729825 19.532869 19.525706 0 10.794857-8.735965 19.529799-19.532869 19.529799-122.288161 0-237.102093-65.396429-299.627125-170.658821C198.586382 562.690752 201.639928 550.69351 210.912106 545.200402L210.912106 545.200402zM210.912106 545.200402M196.227662 494.88239c-10.488889 2.422166-20.99415-4.058432-23.457248-14.567787-5.832845-24.929786-9.135054-40.378639-9.135054-68.106144 0-10.793834 8.754385-19.530822 19.531845-19.530822 10.794857 0 19.529799 8.738012 19.529799 19.530822 0 23.531949 2.631944 35.814694 8.106632 59.2218C213.260593 481.93859 206.73804 492.424408 196.227662 494.88239L196.227662 494.88239zM196.227662 494.88239"  horiz-adv-x="1024" />

    
    <glyph glyph-name="gonggao" unicode="&#58928;" d="M602.368301-127.999994c-7.288471 0-14.456471 2.650353-20.118588 7.770353L289.686891 143.058828 120.485951 143.058828c-48.429176 0-120.470588 32.105412-120.470588 120.470588l0 180.705881c0 48.429176 32.105412 120.470588 120.470588 120.470588l169.140705 0 292.562822 263.348704c8.854588 8.011294 21.564235 9.938823 32.406588 5.12C625.558889 828.29553 632.485948 817.513412 632.485948 805.647059l0-903.529406c0-11.866353-6.927059-22.708706-17.829647-27.527529C610.741006-127.1567 606.524536-127.999994 602.368301-127.999994zM120.485951 504.470591c-57.344 0-60.235294-50.176-60.235294-60.235294l0-180.705881c0-57.283764 50.176-60.235294 60.235294-60.235294l180.705881 0c7.469176 0 14.637176-2.770824 20.118588-7.770353L572.250654-30.238112 572.250654 738.002824 321.370655 512.240943C315.829008 507.241414 308.661008 504.470591 301.191832 504.470591L120.485951 504.470591zM752.956535 534.588237c-7.649882 0-15.420235 2.951529-21.323294 8.794353-11.745882 11.745882-11.745882 30.84047 0 42.586353l120.470588 120.470588c11.745882 11.745882 30.84047 11.745882 42.586353 0s11.745882-30.84047 0-42.586353l-120.470588-120.470588C768.37677 537.539767 760.726888 534.588237 752.956535 534.588237zM933.662416 323.764709l-180.705881 0C736.391829 323.764709 722.838888 337.257415 722.838888 353.882356s13.552941 30.117647 30.117647 30.117647l180.705881 0C950.347593 384.000003 963.780063 370.507297 963.780063 353.882356S950.347593 323.764709 933.662416 323.764709zM873.427123-7.529406c-7.649882 0-15.420235 2.951529-21.323294 8.794353l-120.470588 120.470588c-11.745882 11.745882-11.745882 30.84047 0 42.586353s30.84047 11.745882 42.586353 0l120.470588-120.470588c11.745882-11.745882 11.745882-30.84047 0-42.586353C888.847358-4.577877 881.197475-7.529406 873.427123-7.529406z"  horiz-adv-x="1025" />

    
    <glyph glyph-name="wechat" unicode="&#58920;" d="M506.942 550.079c25.259 0 42.134 16.916 42.134 42.107 0 25.477-16.848 41.956-42.134 41.956-25.299 0-50.668-16.48-50.668-41.956 0.028-25.204 25.409-42.107 50.668-42.107l0 0zM506.942 550.079zM271.257 634.143c-25.259 0-50.79-16.48-50.79-41.956 0-25.19 25.532-42.107 50.79-42.107 25.163 0 42.012 16.916 42.012 42.107-0.014 25.477-16.834 41.956-42.012 41.956l0 0zM271.257 634.143zM1010.654 280.50800000000004c0 133.202-123.563 246.702-275.237 258.512 0.205 1.652 0.301 3.373-0.068 5.092-30.406 141.79-182.886 248.695-354.7 248.695-194.15 0-352.119-135.387-352.119-301.793 0-89.279 45.574-169.725 131.946-233.158l-30.106-90.508c-1.939-5.885-0.177-12.37 4.506-16.452 2.853-2.458 6.445-3.741 10.076-3.741 2.335 0 4.697 0.546 6.867 1.625l113.036 56.565 13.926-2.827c34.802-7.154 64.853-13.353 101.868-13.353 10.895 0 40.878 3.987 43.404 7.182 40.755-101.99 153.094-175.61 285.273-175.61 33.86 0 68.13 8.164 98.891 15.866l87.136-47.636c2.307-1.257 4.847-1.911 7.359-1.911 3.441 0 6.881 1.161 9.639 3.413 4.847 3.932 6.841 10.404 5.038 16.33l-22.255 74.001c74.602 58.955 115.521 129.488 115.521 199.708l0 0zM409.798 230.25c-9.626-0.833-19.388-1.243-29.082-1.243-32.686 0-60.334 5.652-92.31 12.26l-18.582 3.755c-3.195 0.683-6.567 0.245-9.503-1.269l-81.687-40.892 21.231 63.775c2.076 6.24-0.205 13.053-5.57 16.821-82.07 57.207-123.659 126.894-123.659 207.093 0 144.179 139.087 261.516 310.067 261.516 151.142 0 284.959-91.955 312.579-214.261-158.475-2.076-286.706-113.487-286.706-250.32 0-19.893 3.018-39.171 8.11-57.767-1.542 0.382-3.168 0.683-4.887 0.532l0 0zM860.371 107.30100000000004c-4.875-3.673-6.935-10.007-5.188-15.852l13.804-45.903-56.647 30.993c-2.157 1.188-4.588 1.803-7.004 1.803-1.188 0-2.389-0.15-3.564-0.464-30.379-7.674-61.822-15.593-92.433-15.593-142.186 0-257.857 97.717-257.857 217.811 0 120.095 115.658 217.771 257.857 217.771 139.469 0 257.325-99.724 257.325-217.771 0-59.87-37.738-121.255-106.291-172.797l0 0zM868.181 98.822zM616.454 389.994c-16.848 0-33.696-16.971-33.696-33.792 0-16.944 16.848-33.669 33.696-33.669 25.313 0 42.038 16.725 42.038 33.669 0 16.848-16.725 33.792-42.038 33.792l0 0zM616.454 389.994zM801.58 389.994c-16.603 0-33.451-16.971-33.451-33.792 0-16.944 16.848-33.669 33.451-33.669 25.231 0 42.257 16.725 42.257 33.669 0 16.848-16.998 33.792-42.257 33.792l0 0zM801.58 389.994z"  horiz-adv-x="1024" />

    
    <glyph glyph-name="shejishi" unicode="&#59042;" d="M1024-66.8l-0.8 0 0 0-287.6 0 273.2 273.2-104 104-302.4-302.4 75.2-75.2L608-67.2l0-44.8 415.2 0 0 0 0.8 0L1024-66.8zM904.8 265.2l56.4-56.4-34.8-34.8-35.6 35.6-12.4-12.4 35.6-35.6-15.6-15.6-23.6 23.6-12.4-12.4 23.6-23.6-15.6-15.6-35.6 35.6-12.4-12.4 35.6-35.6-15.6-15.6-23.6 23.6-12.4-12.4 23.6-23.6-15.6-15.6-35.6 35.6-12.4-12.4 35.6-35.6-15.6-15.6-23.6 23.6-12.4-12.4 23.6-23.6-15.6-15.6-35.6 35.6-12.4-12.4 35.6-35.6-15.6-15.6-23.6 23.6-12.4-12.4 23.6-23.6L704-48l-56.4 56.4L904.8 265.2zM531.2 28.4l196.4 196.4c11.6 11.6 8.4 31.2-6.8 38.4l-122.4 57.6c63.6 64.8 88 171.6 88 228.4L686.4 680.8c0 96.4-129.2 198.8-252 198.8-122 0-251.2-102-251.2-198.8l0-131.2c0-56.8 24.4-164 88-228.4l-210-99.2C55.2 219.2 0 193.6 0 155.6l0-140.8c0-30.4 20.4-56.8 49.6-64.8l18.4-5.2 0 0 478.8 0c25.2 0 37.6 30.4 20 48L531.2 28.4z"  horiz-adv-x="1024" />

    
    <glyph glyph-name="user" unicode="&#58947;" d="M940.032-112.63999999999999l-855.04 0c-54.272 0-84.992 32.768-84.992 91.136 0 111.616 99.328 273.408 278.528 273.408 11.264 0 19.456-9.216 19.456-19.456s-9.216-19.456-19.456-19.456c-153.6 0-238.592-138.24-238.592-234.496 0-46.08 24.576-51.2 45.056-51.2l855.04 0c21.504 0 45.056 6.144 45.056 51.2 0 95.232-84.992 234.496-238.592 234.496-11.264 0-19.456 9.216-19.456 19.456s9.216 19.456 19.456 19.456C925.696 251.904 1025.024 90.11199999999997 1025.024-21.50400000000002 1025.024-78.84799999999996 994.304-112.63999999999999 940.032-112.63999999999999zM513.024 266.24c-153.6 0-279.552 137.216-279.552 307.2S359.424 880.64 513.024 880.64s279.552-137.216 279.552-307.2S666.624 266.24 513.024 266.24zM513.024 840.704c-132.096 0-239.616-119.808-239.616-267.264S380.928 306.17600000000004 513.024 306.17600000000004s239.616 119.808 239.616 267.264S645.12 840.704 513.024 840.704z"  horiz-adv-x="1026" />

    
    <glyph glyph-name="bangzhupeisongfuwu" unicode="&#58959;" d="M812.2368 457.728c0 19.52426667-15.83786667 35.29386667-35.29386667 35.29386667L635.63093333 493.02186667 635.63093333 563.67786667c0 19.52426667-15.83786667 35.29386667-35.29386666 35.29386666L229.10293333 598.97173333l0-52.97493333 335.872 0c9.76213333 0 17.68106667-7.91893333 17.68106667-17.68106667l0-200.2944c-23.89333333-8.46506667-43.89546667-25.25866667-56.38826667-46.8992l-116.736 0C391.168 312.79786666999996 356.9664 334.16533332999995 317.78133333 334.16533332999995c-35.4304 0-66.69653333-17.408-85.94773333-44.032C230.33173333 292.65920000000006 229.44426667 295.66293333 229.44426667 298.80319999999995L229.44426667 475.40906667 229.44426667 528.384 229.44426667 599.04 211.83146667 599.04c-19.52426667 0-35.29386667-15.83786667-35.29386667-35.29386667l0-300.16853333c0-19.52426667 15.83786667-35.29386667 35.29386667-35.29386667 0-58.50453333 47.44533333-105.94986667 105.94986666-105.94986666 58.50453333 0 105.94986667 47.44533333 105.94986667 105.94986666L512 228.28373333000002c0-58.50453333 47.44533333-105.94986667 105.94986667-105.94986666 58.50453333 0 105.94986667 47.44533333 105.94986666 105.94986666l88.2688 0c19.52426667 0 35.29386667 15.83786667 35.29386667 35.29386667L812.2368 457.728 812.2368 457.728zM317.78133333 175.17226667c-29.2864 0-52.97493333 23.7568-52.97493333 52.97493333s23.68853333 52.97493333 52.97493333 52.97493333c29.2864 0 52.97493333-23.7568 52.97493334-52.97493333S346.99946667 175.17226667 317.78133333 175.17226667L317.78133333 175.17226667zM617.94986667 175.17226667c-29.2864 0-52.97493333 23.7568-52.97493334 52.97493333s23.68853333 52.97493333 52.97493334 52.97493333c29.2864 0 52.97493333-23.7568 52.97493333-52.97493333S647.23626667 175.17226667 617.94986667 175.17226667L617.94986667 175.17226667zM794.55573333 289.9968c0-4.84693333-3.95946667-8.8064-8.8064-8.8064l-76.04906666 0c-8.192 14.19946667-19.59253333 26.28266667-33.1776 35.29386667l109.22666666 0c4.84693333 0 8.8064-3.95946667 8.8064-8.8064L794.55573333 289.9968 794.55573333 289.9968zM776.87466667 351.77813332999995l-123.63093334 0c-9.76213333 0-17.68106667 7.91893333-17.68106666 17.68106667L635.56266667 422.43413333c0 9.76213333 7.91893333 17.68106667 17.68106666 17.68106667l105.94986667 0c9.76213333 0 17.68106667-7.91893333 17.68106667-17.68106667l17.68106666-52.97493333C794.55573333 359.69706667 786.6368 351.77813332999995 776.87466667 351.77813332999995L776.87466667 351.77813332999995zM776.87466667 351.77813332999995M512 814.08c237.1584 0 430.08-192.9216 430.08-430.08s-192.9216-430.08-430.08-430.08S81.92 146.84159999999997 81.92 384 274.8416 814.08 512 814.08M512 861.86666667C248.08106667 861.86666667 34.13333333 647.91893333 34.13333333 384c0-263.91893333 213.94773333-477.86666667 477.86666667-477.86666667 263.91893333 0 477.86666667 213.94773333 477.86666667 477.86666667C989.86666667 647.91893333 775.91893333 861.86666667 512 861.86666667L512 861.86666667z"  horiz-adv-x="1024" />

    
    <glyph glyph-name="wenzhang" unicode="&#58922;" d="M251.25 443.6l521.5 0 0-29.8-521.5 0 0 29.8ZM251.25 279.699l521.5 0 0-29.8-521.5 0 0 29.8ZM251.25 115.8l253.3 0 0-29.801-253.3 0 0 29.801ZM884.457 594.593l0 0.189-0.189 0L649.214 830.796 649.214 831l-29.8 0L610 831 139.5 831l0-894 744.957 0L884.457 555.408l0 39.068 0.043 0.059L884.457 594.593zM649.214 788.555l195.155-195.94-195.155 0.015L649.214 788.555zM854.656-33.2 169.3-33.2 169.3 801.2l450.114 0 0-208.571L619.414 577.7l0-14.9 235.242 0.015L854.656-33.2z"  horiz-adv-x="1024" />

    
    <glyph glyph-name="shanghu" unicode="&#59807;" d="M1004.3648 471.63392c-3.41504 18.66752-7.99232 37.25312-13.49632 55.23968-6.66624 21.71904-29.62944 34.04288-51.34848 27.264-21.71904-6.66624-33.92-29.62944-27.25888-51.34848 4.5824-14.976 8.39168-30.47424 11.24864-46.01856 7.30112-39.86432 8.70912-80.896 4.13184-121.92768-19.79392-178.6624-162.15552-329.30304-338.52416-358.25152-134.33344-21.95456-265.73312 19.79392-360.64256 114.66752-94.86336 94.91456-136.65792 226.36032-114.61632 360.65792 28.8256 176.04608 173.07648 314.88512 350.72512 337.65376 142.16192 18.38592 280.79104-36.17792 371.28192-145.46432 14.49472-17.46432 40.38656-19.95264 57.89184-5.45792 17.50528 14.49472 19.9168 40.43264 5.45792 57.89696C790.5792 827.66848 624.32768 892.83072 454.14912 871.14752 240.68096 843.76576 67.4048 676.86912 32.7168 465.24928c-26.37824-160.75264 23.76704-318.2592 137.62048-432.12288 93.94688-93.94688 217.6-144.5376 348.27776-144.5376 27.6992 0 55.72608 2.28864 83.82976 6.86592 215.42912 35.328 382.76096 212.30592 406.93248 430.3104C1014.84032 374.74816 1013.15584 423.85408 1004.3648 471.63392zM829.66016 636.24704l-251.33568 0c-1.6896 8.36608-5.02784 20.93056-10.05568 37.69856-3.37408 11.70432-5.888 20.10624-7.54176 25.13408L482.816 691.53792c3.33824-6.71744 7.54176-17.59744 12.5696-32.67072 3.33824-10.05568 5.85216-17.59744 7.54176-22.62016L228.97152 636.24704l0-52.77696 397.1072 0c-1.6896-3.3792-4.20352-7.54176-7.54176-12.5696-18.4576-30.1568-33.54112-51.95264-45.24032-65.34656L465.2288 505.55392l17.59232 2.51392c-1.68448 1.64864-3.37408 4.16256-5.02784 7.53664-18.4576 30.16192-34.36032 51.92192-47.74912 65.35168L367.2064 568.38656c10.05568-16.768 24.2688-37.69856 42.7264-62.83264L264.16128 505.55392l0-407.16288 65.34656 0 0 258.87232c1.65376-3.37408 5.02784-8.40192 10.05568-15.0784 10.05568-15.08352 16.72704-25.13408 20.10624-30.16192l47.75424 30.16192 0-168.3968 243.79392 0 0 175.93344 50.26816-35.18976 27.648 42.7264 0-158.34112c3.33824-23.48544-10.05568-34.31936-40.21248-32.67072l-75.40224 0c3.33824-10.05568 6.67648-23.44448 10.05568-40.21248 1.64864-8.36608 3.33824-15.08352 5.02784-20.10624 11.6992 0 26.7776 0.86016 45.2352 2.51392l40.21248 0c55.296-1.65376 82.07872 25.13408 80.42496 80.42496L794.47552 505.55392l-145.77152 0c5.02784 6.67648 12.5696 17.59232 22.62016 32.67072 10.05056 13.39392 16.72704 23.44448 20.10624 30.1568l-62.83264 15.08352 201.06752 0L829.66528 636.24704zM595.9168 224.06144 465.2288 224.06144l0 77.91104 130.688 0L595.9168 224.06144zM729.12384 452.77184l0-87.96672c-53.64224 35.18464-98.88256 64.48128-135.72096 87.96672l-37.69856-40.21248c11.70432-8.40192 27.648-19.28192 47.75424-32.67072 20.10624-13.42976 34.32448-22.62016 42.7264-27.648l-226.2016 0c15.0784 8.3712 36.00896 23.44448 62.83264 45.24032 8.36608 6.67648 15.08352 11.70432 20.10624 15.08352l-40.21248 40.21248c-45.24032-36.87424-89.65632-67.86048-133.20704-92.99456L329.50272 452.77184l133.20704 0 130.688 0L729.12384 452.77184z"  horiz-adv-x="1024" />

    
    <glyph glyph-name="dianpuguanli" unicode="&#58942;" d="M503.160681 26.1181 213.232452 26.1181c-13.924127 0-25.64917 12.992919-25.64917 28.398794L187.583283 433.377594c2.676969-0.164752 5.373381-0.258896 8.090259-0.258896 43.022862 0 81.295538 21.11797 105.353466 53.728692 24.040533-32.629141 62.313208-53.764508 105.353466-53.764508 43.022862 0 81.278141 21.11797 105.33607 53.711296 24.040533-32.646538 62.330604-53.7993 105.370863-53.7993 42.971697 0 81.20958 21.065781 105.267509 53.572126 24.040533-32.750915 62.348-53.973262 105.439424-53.973262 72.618924 0 131.692345 59.901275 131.692345 133.578298 0 1.344624-0.103354 2.625804-0.291642 3.954055L924.07722 807.465594c-1.938142 13.117762-13.015432 22.64372-26.047236 22.64372L125.437897 830.109314c-13.031804 0-24.109094-9.525957-26.047236-22.64372L64.272839 570.219215c-0.188288-1.327228-0.291642-2.65548-0.291642-4.000104 0-51.127448 28.667923-95.601358 70.607104-117.887944l0-393.814274c0-44.768623 35.929304-82.381266 78.643128-82.381266l289.928229 0c14.541181 0 26.337855 12.17939 26.337855 26.990724C529.498536 13.93871 517.701862 26.1181 503.160681 26.1181zM148.107199 777.276015l727.254505 0 31.43085-212.698287c-0.994654-43.231617-36.043914-78.322833-78.998215-78.322833-43.571355 0-79.015611 36.227086-79.015611 80.751139 0 14.812357-11.797697 26.830065-26.338878 26.830065-14.541181 0-26.337855-12.017708-26.337855-26.830065 0-44.296879-35.443233-80.348979-79.015611-80.348979s-79.015611 36.122709-79.015611 80.541361c0 14.812357-11.797697 26.830065-26.338878 26.830065-14.541181 0-26.337855-12.015661-26.337855-26.828019 0-44.366464-35.443233-80.450287-79.015611-80.450287s-79.015611 36.128849-79.015611 80.513732c0 14.812357-11.797697 26.843368-26.337855 26.843368-14.541181 0-26.337855-11.989055-26.337855-26.801413 0-44.366464-35.443233-80.414471-79.015611-80.414471-42.954301 0-78.003562 34.751478-78.998215 77.685313L148.107199 777.276015zM930.130076 192.56397c16.324804 21.083178 18.365276 49.732681 5.178953 72.982198l-10.957563 19.360953c-12.929474 22.776749-37.929868 35.43914-63.444984 32.102139l-20.268626-2.571568c-13.374612-1.711991-25.669636 5.964852-30.196743 17.668405l-8.075933 24.559349c-10.18599 26.375717-34.689057 45.031613-59.58712 45.031613l-20.936845 0c-24.915459 0-49.435922-18.673292-59.759035-45.502333l-7.476275-21.345144c-4.989641-12.925381-17.696034-20.995173-31.139208-19.230993l-19.256576 2.235924c-25.961278 3.580548-50.996464-9.152451-64.114227-32.401967l-10.957563-19.546172c-13.066597-23.178909-11.059893-51.754734 5.126764-72.785723l12.346189-16.034185c8.247848-10.707876 8.247848-25.65838-0.017396-36.383652l-12.226462-15.841803c-16.255219-21.065781-18.261922-49.674353-5.126764-72.888054l10.425444-18.405185c13.237489-23.301705 39.627533-36.075637 65.657372-31.761378l18.639522 3.080152c13.323447 2.218528 26.252921-5.123694 31.962969-19.254529l6.189979-12.134365c9.328459-23.26589 31.483038-36.966936 59.278081-36.966936l21.828145 0c27.813462 0 49.967018 13.701047 59.003835 36.356023l7.184633 16.006556c4.88731 12.19167 17.678638 19.336394 30.762631 17.187451l19.581987-3.476171c26.166963-4.139274 51.801806 8.244778 65.005526 31.458479l10.425444 18.165732c13.254885 23.301705 11.248182 51.982932-5.110391 73.083505l-11.917424 15.35471c-8.299013 10.725272-8.299013 25.730011 0 36.437887L930.130076 192.56397zM904.83804 70.241017l-10.425444-18.162662c-5.933129-10.444886-17.198707-16.010649-28.979008-14.159488l-19.581987 3.488451c-29.664623 4.558829-57.924247-11.416004-68.692498-38.33305l-7.184633-16.159028c-5.178953-12.942777-18.98233-14.780635-26.750247-14.780635l-21.828145 0c-7.767917 0-21.571295 1.836835-27.367301 16.160051l-6.189979 12.125155c-9.996678 24.943089-33.402761 40.593534-59.072397 40.593534-3.429099 0-6.910387-0.279363-10.408047-0.855484l-18.639522-3.056616c-11.711739-2.026146-23.662933 3.825119-29.630854 14.340613l-10.425444 18.410302c-5.933129 10.463306-5.024433 23.388686 2.314719 32.908504l12.226462 15.842827c18.296715 23.702841 18.313088 56.8201 0.051165 80.557734l-12.346189 16.033162c-7.30436 9.502421-8.214079 22.406313-2.297322 32.921807l10.957563 19.537985c5.966898 10.532891 17.216103 16.229636 29.305443 14.674211l19.273972-2.266623c28.532847-3.894703 57.340963 13.510712 68.314898 42.051745l7.476275 20.977777c4.852518 12.593829 16.427134 21.850657 26.903743 21.850657l20.936845 0c10.476609 0 22.027689-9.256828 26.589588-21.012569l8.069793-24.173562c10.717086-27.789926 38.448684-44.558845 67.565838-40.872896l20.243043 2.602268c11.608386 1.502213 22.773679-4.227278 28.586059-14.480806l10.858302-19.35379c0 0 0 0 0-0.017396 5.637394-10.480702 5.140067-23.406083-2.232854-32.908504l-11.869329-15.458063c-18.399045-23.772426-18.399045-56.977689 0-80.767512l11.93482-15.370059C909.896242 93.627656 910.788565 80.685903 904.83804 70.241017zM732.301452 249.4864c-47.429219 0-86.028329-39.318494-86.028329-87.650269 0-48.314379 38.59911-87.632873 86.028329-87.632873 47.446615 0 86.045725 39.318494 86.045725 87.632873C818.346153 210.166883 779.748067 249.4864 732.301452 249.4864zM732.301452 109.974973c-28.070312 0-50.910507 23.26589-50.910507 51.860135 0 28.611641 22.840194 51.877531 50.910507 51.877531 28.087709 0 50.927903-23.266913 50.927903-51.877531C783.228331 133.241886 760.388137 109.974973 732.301452 109.974973z"  horiz-adv-x="1024" />

    
    <glyph glyph-name="gongzhonghao" unicode="&#58943;" d="M691.23 532.944c4.507 0 8.986-0.1 13.443-0.267-28.388 129.985-162.366 228.411-323.384 228.411-181.675 0-328.95-125.292-328.95-279.845 0-90.299 50.286-170.592 128.32-221.762l-32.866-96.942 108.829 59.677c38.451-13.407 80.538-20.818 124.666-20.818 8.507 0 16.938 0.274 25.281 0.815-9.206 24.38-14.193 50.361-14.193 77.331 0.002 139.947 133.802 253.399 298.855 253.399zM494.811 622.75c26.828 0 48.577-21.748 48.577-48.577 0-26.828-21.748-48.577-48.577-48.577s-48.577 21.748-48.577 48.577c0.001 26.829 21.749 48.577 48.577 48.577zM268.823 525.596c-26.828 0-48.577 21.748-48.577 48.577 0 26.828 21.748 48.577 48.577 48.577s48.577-21.748 48.577-48.577c0-26.828-21.748-48.577-48.577-48.577zM968.964 279.544c0 130.059-124.345 235.492-277.733 235.492s-277.732-105.433-277.732-235.492 124.345-235.492 277.733-235.492c32.207 0 63.124 4.664 91.888 13.212l94.96-52.071-27.599 81.407c71.639 42.59 118.484 113.124 118.484 192.944zM604.458 313.337c-21.48 0-38.893 17.413-38.893 38.893 0 21.48 17.413 38.893 38.893 38.893 21.48 0 38.893-17.413 38.893-38.893-0-21.48-17.413-38.893-38.893-38.893zM785.396 313.337c-21.48 0-38.893 17.413-38.893 38.893 0 21.48 17.413 38.893 38.893 38.893 21.48 0 38.893-17.413 38.893-38.893-0-21.48-17.414-38.893-38.893-38.893z"  horiz-adv-x="1024" />

    
    <glyph glyph-name="tijiao" unicode="&#58916;" d="M776.340596 759.889666l-369.442335 0c-7.573056 0-14.839097-2.967819-20.263042-8.187088L201.197681 571.177294c-5.526284-5.423946-8.801119-12.997002-8.801119-20.774735l-1.023386-513.637418c0-7.777733 2.967819-15.043774 8.494104-20.570058 5.526284-5.526284 12.792325-8.494104 20.570058-8.494104L382.746352 7.700979c12.485309 0 22.514491 10.029182 22.514491 22.514491s-10.029182 22.514491-22.514491 22.514491L236.402159 52.729962l0.921047 467.687388 194.03398 0c16.681191 0 30.189886 13.508695 30.189886 30.189886L461.547072 714.860684l298.828703 0 0-665.200879L621.195283 49.659804c-12.485309 0-22.514491-10.029182-22.514491-22.514491s10.029182-22.514491 22.514491-22.514491l155.145313 0c16.06716 0 29.064162 12.997002 29.064162 29.064162L805.404757 730.825505C805.404757 746.892664 792.407755 759.889666 776.340596 759.889666zM416.518089 565.446332 259.837697 565.446332l153.610234 149.414351 3.172497 0L416.620428 565.446332zM713.30002 434.452928c0 12.485309-10.029182 22.514491-22.514491 22.514491L326.460124 456.96742c-12.485309 0-22.514491-10.029182-22.514491-22.514491l0 0c0-12.485309 10.029182-22.514491 22.514491-22.514491l364.325405 0C703.270837 411.938437 713.30002 421.967619 713.30002 434.452928L713.30002 434.452928zM713.30002 357.698981c0 12.485309-10.029182 22.514491-22.514491 22.514491L326.460124 380.213472c-12.485309 0-22.514491-10.029182-22.514491-22.514491l0 0c0-12.485309 10.029182-22.514491 22.514491-22.514491l364.325405 0C703.270837 335.184489 713.30002 345.213672 713.30002 357.698981L713.30002 357.698981zM713.30002 279.921647c0 12.485309-10.029182 22.514491-22.514491 22.514491L326.460124 302.436138c-12.485309 0-22.514491-10.029182-22.514491-22.514491l0 0c0-12.485309 10.029182-22.514491 22.514491-22.514491l364.325405 0C703.270837 257.407156 713.30002 267.436338 713.30002 279.921647L713.30002 279.921647zM501.970818 220.155906c-1.535079 1.535079-4.093544 1.43274-5.526284-0.102339l-54.853488-59.458725c-2.251449-2.456126-0.511693-6.447332 2.865481-6.447332L479.968019 154.147511l0-88.829902c0-2.251449 1.842095-4.298221 4.093544-4.298221l36.841895 0c2.251449 0 4.093544 2.046772 4.093544 4.298221L524.997002 154.045173l35.511493 0c3.479512 0 5.219268 4.195882 2.660804 6.652009L501.970818 220.155906z"  horiz-adv-x="1024" />

    
    <glyph glyph-name="baocun" unicode="&#58988;" d="M895.83 833.898c31.761-5.294 52.935-26.468 60.876-52.935 7.94-18.527 5.294-82.049 5.294-108.517v-616.695c0-18.527 0-42.349-2.647-55.582-2.647-31.761-23.821-52.935-50.288-60.876-18.527-7.94-84.697-5.294-108.517-5.294-206.447 0-412.895 0-619.342 0-15.881 0-39.701 0-55.582 2.647-29.115 2.647-52.935 23.821-60.876 50.288-5.294 18.527-2.647 84.697-2.647 108.517v619.342c0 15.881 0 37.055 0 52.935 5.294 31.761 26.467 52.935 52.935 63.522 18.527 5.294 82.049 2.647 108.517 2.647 206.447 0 410.248 0 616.695 0 15.881 0 39.701 0 55.582 0zM334.719 534.814h354.666c10.587 0 13.234 5.294 13.234 13.234v230.268h-381.133v-222.328c0-15.881-2.647-21.173 13.234-21.173zM758.2 778.316v-248.796c0-37.055-7.94-50.288-44.994-50.288-97.93 0-370.546 0-418.188 0-21.173 0-29.115 10.587-29.115 37.055v262.029c-31.761 0-84.697 0-116.458 0-15.881 0-26.467 0-29.115-10.587-2.647-7.94-2.647-137.632-2.647-156.158v-592.874c0-13.234 0-23.821 13.234-26.467 5.294-2.647 137.632-2.647 156.158-2.647 52.935 0 58.228 0 111.164 0v179.979h227.621v-179.979c74.109 0 111.164 0 187.92 0 10.587 0 74.109 0 79.403 2.647 10.587 2.647 13.234 10.587 13.234 26.467v669.63c0 13.234 0 68.815-2.647 76.756-2.647 13.234-18.527 13.234-26.467 13.234-34.408 0-84.697-2.647-119.104 0zM453.823-7.772l116.458-2.647v124.398h-116.458v-121.751z"  horiz-adv-x="1024" />

    
    <glyph glyph-name="choose1" unicode="&#59077;" d="M327.175 128.214h-204.743c-42.33 0-76.778 34.448-76.778 76.779v614.228c0 42.33 34.448 76.778 76.778 76.778h716.601c42.33 0 76.778-34.448 76.778-76.778v-358.3c0-14.127-11.466-25.593-25.593-25.593-14.128 0-25.593 11.466-25.593 25.593v358.3c0 14.128-11.466 25.593-25.593 25.593h-716.601c-14.127 0-25.593-11.465-25.593-25.593v-614.228c0-14.128 11.466-25.594 25.593-25.594h204.743c14.128 0 25.593-11.465 25.593-25.593-0.001-14.126-11.466-25.593-25.593-25.593v0zM711.068-127.714c-10.135 0-19.757 6.092-23.751 16.071l-86.862 217.13-151.663-173.315c-7.012-8.036-18.273-10.852-28.255-7.114s-16.585 13.309-16.585 23.955v767.786c0 10.135 5.989 19.297 15.254 23.392s20.064 2.354 27.59-4.453l563.043-511.857c7.831-7.114 10.493-18.325 6.653-28.153-3.839-9.827-13.309-16.379-23.853-16.379h-218.103l88.347-220.814c5.271-13.104-1.126-28-14.281-33.27l-127.964-51.186c-3.122-1.229-6.348-1.843-9.521-1.843l-0.051 0.050zM608.697 179.399c1.434 0 2.866-0.102 4.3-0.357 8.804-1.485 16.123-7.474 19.45-15.714l92.851-232.178 80.464 32.196-92.851 232.178c-3.173 7.882-2.199 16.839 2.56 23.852 4.761 7.013 12.693 11.261 21.19 11.261h189.746l-471.267 428.425v-641.818l134.313 153.506c4.913 5.58 11.926 8.753 19.246 8.753v-0.103z"  horiz-adv-x="1024" />

    
    <glyph glyph-name="review" unicode="&#59090;" d="M69.417 455.147v-428.086c0-58.451 61.589-102.131 115.751-102.131h680.895c53.521 0 88.521 41.055 88.521 102.131v442.086l-85.918-8.5-201.5 49.001-160.5-57.5-172.5 28-195.5-12.5-69.249-12.5zM886.494 27.061c0-22.57-6.233-34.043-20.432-34.043l-680.895 0.002c-21.345 0-47.663 18.451-47.663 34.041l-0.339 397.586c0 0 111.065 45.266 224 50.5 59.787 2.771 132.292-31.957 177.5-39.001 45.307-7.059 141.755 58.063 145.001 55.5l202.5-65.001 0.329-399.586zM1011.657 615.124c-0.073 0.426-0.18 0.826-0.292 1.166-0.443 1.657-1.031 3.253-1.871 4.787l-34.491 66.341-51.621 99.941c-14.918 34.482-57.75 55.625-107.858 55.711h-604.439c-50.771 0-90.223-20.946-104.517-54.059l-92.578-169.67c-0.438-1.001-0.921-2.479-1.324-3.991-6.722-16.013-10.101-32.455-10.101-48.956 0.073-58.020 35.593-117.787 101.536-145.060 0 0 44.667-14.287 100.665-14.287 60.283 0.138 116.127 24.757 154.183 59.925 37.876-34.881 92.874-59.641 153.052-59.925 59.693 0.368 115.353 25.213 153.044 60.063 38.063-35.166 95.477-60.063 156.058-60.063 36.666 0.139 69.594 2.635 97.001 14.287 64.951 27.53 103.367 88.237 103.332 145.66 0.106 16.497-3.38 33.056-9.778 48.13v0zM884.151 492.026c-16.784-6.672-37.711-10.087-62.054-10.194-45.121 0-86.244 16.619-110.253 44.831-1.7 2.663-4.558 7.071-9.887 11.322-6.116 4.972-17.229 10.861-35.527 10.861-14.749 0-28.118-4.382-35.677-11.104-5.003-4.087-7.744-8.147-9.706-11.106-23.713-27.859-64.849-50.065-109.049-50.309-44.747 0.188-85.3 22.337-109.156 50.414-1.668 2.475-4.449 6.644-8.778 10.169-17.415 15.084-56.388 14.305-71.575 1.155-5.591-4.438-8.519-8.905-10.407-11.942-23.935-27.861-65.092-48.563-109.991-48.671-23.936 0-44.421 3.255-60.944 9.655h-0.073c-42.382 16.378-68.723 52.221-68.756 87.072 0 10.3 2.367 20.681 7.11 30.793 0.333 0.727 0.626 1.531 0.887 2.367l91.949 157.809c1.889 4.032 7.6 16.322 36.195 16.322h609.71c11.746-0.509 31.974-2.014 39.157-17.371l86.098-155.63c0.332-1.127 0.741-2.208 1.114-3.097 4.777-10.14 7.143-20.439 7.143-30.655 0.084-34.446-25.814-66.126-67.53-82.692v0zM223.775 170.557c7.895-12.35 29.604-34.604 69.587-46.512 39.984-11.908 98.063-0.768 122.619 36.176 3.538 5.257 9.398 12.035 22.211 8.381 14.333-4.105 314.949-103.963 314.949-103.963 26.813-10.117 56.074 7.23 63.979 34.461 7.556 27.172-8 58.277-36.016 64.409 0 0-307.922 81.791-320.183 85.359-12.162 3.623-13.642 12.422-14.428 19.295-6.29 57.031-51.641 86.766-85.137 97.725-34.669 11.473-62.933 0.354-76.447-6.111-13.418-6.412-31.764-18.375-37.165-37.582l86.006-25.779 20.538-59.387-55.547-36.807-85.775 25.578c-6.077-21.629 2.969-42.988 10.809-55.242z"  horiz-adv-x="1024" />

    
    <glyph glyph-name="zidongchuchuang50" unicode="&#58936;" d="M359.936 421.376l-204.8 0c-67.584 0-122.88 55.296-122.88 122.88l0 204.8c0 67.584 55.296 122.88 122.88 122.88l204.8 0c67.584 0 122.88-55.296 122.88-122.88l0-204.8C482.816 476.672 427.52 421.376 359.936 421.376zM165.376 812.032c-40.448 0-73.216-32.768-73.216-73.216l0-183.296C92.16 514.56 124.928 481.28 165.376 481.28l183.296 0c40.448 0 73.216 32.768 73.216 73.216L421.888 738.304c0 40.448-32.768 73.216-73.216 73.216L165.376 812.032zM359.936-93.184l-204.8 0c-67.584 0-122.88 55.296-122.88 122.88l0 204.8c0 67.584 55.296 122.88 122.88 122.88l204.8 0c67.584 0 122.88-55.296 122.88-122.88l0-204.8C482.816-37.888 427.52-93.184 359.936-93.184zM165.376 297.472c-40.448 0-73.216-32.768-73.216-73.216l0-183.296c0-40.448 32.768-73.216 73.216-73.216l183.296 0c40.448 0 73.216 32.768 73.216 73.216l0 183.296c0 40.448-32.768 73.216-73.216 73.216L165.376 297.472zM868.864-94.208l-204.8 0c-67.584 0-122.88 55.296-122.88 122.88l0 204.8c0 67.584 55.296 122.88 122.88 122.88l204.8 0c67.584 0 122.88-55.296 122.88-122.88l0-204.8C991.744-38.912 936.448-94.208 868.864-94.208zM674.816 296.448c-40.448 0-73.216-32.768-73.216-73.216l0-183.296c0-40.448 32.768-73.216 73.216-73.216l183.296 0c40.448 0 73.216 32.768 73.216 73.216l0 183.296c0 40.448-32.768 73.216-73.216 73.216L674.816 296.448zM964.608 430.08c-13.312 0-29.184 9.216-29.184 19.456L935.424 788.48l-382.976 1.536c-11.264 0-20.48 18.432-20.48 28.672s9.216 28.672 20.48 28.672l386.56 0c23.552 0 52.736-27.648 52.736-48.64l0-349.696C991.744 438.784 975.872 430.08 964.608 430.08zM592.384 428.544c-5.632 1.024-11.776 4.608-17.408 10.24-10.24 10.752-13.312 24.576-6.144 31.232l338.944 327.68c7.168 6.656 20.992 3.584 31.744-7.168 10.24-10.752 13.312-24.576 6.144-31.232l-338.432-327.68C603.136 428.544 598.016 427.52 592.384 428.544z"  horiz-adv-x="1024" />

    
    <glyph glyph-name="shejishi2" unicode="&#58891;" d="M556.326912 222.431232c20.91008-21.307392 40.841216-41.61536 60.928-62.083072-31.080448-52.482048-61.878272-104.486912-93.364224-157.65504-31.602688 53.116928-62.590976 105.199616-94.625792 159.041536 19.697664 18.837504 39.399424 37.679104 60.64128 57.991168-5.312512 1.29024-8.210432 2.064384-11.139072 2.69312-56.121344 12.032-97.517568 45.207552-129.294336 91.377664-31.40608 45.631488-48.760832 96.673792-55.461888 151.496704-3.497984 28.608512-1.005568 56.95488 3.477504 85.225472 0.262144 1.652736 0.944128 3.239936 1.630208 5.517312 49.762304-8.167424 99.319808-12.720128 148.412416 2.320384 48.427008 14.835712 90.804224 39.806976 127.977472 78.422016 2.332672-3.328 4.093952-6.590464 6.539264-9.213952 28.52864-30.6176 60.358656-57.10848 96.669696-78.194688 16.9984-9.87136 34.551808-11.790336 53.274624-7.057408 6.080512 1.536 12.259328 2.680832 18.577408 4.042752 5.906432-38.275072 5.03808-75.286528-3.354624-112.197632-9.275392-40.794112-22.544384-79.9232-45.533184-115.24096-32.917504-50.569216-78.813184-82.204672-138.012672-94.373888C561.768448 224.155648 559.925248 223.47776 556.326912 222.431232zM572.60032 575.21152c-1.865728-1.251328-3.530752-2.258944-5.076992-3.42016-31.952896-23.99232-66.947072-42.074112-105.140224-53.843968-38.11328-11.74528-77.062144-14.764032-116.690944-11.1104-10.496 0.966656-10.846208 0.434176-10.610688-10.000384 1.28-56.674304 16.869376-109.258752 48.431104-156.258304 39.3728-58.628096 92.479488-88.999936 165.357568-75.175936 39.419904 7.477248 73.345024 24.582144 100.089856 55.023616 24.90368 28.346368 40.521728 61.62432 49.645568 97.708032 5.869568 23.21408 8.732672 47.194112 12.720128 70.868992 0.575488 3.411968 1.275904 7.507968-4.775936 7.733248-17.311744 0.64512-33.544192 5.705728-48.001024 14.98112-19.429376 12.466176-38.475776 25.575424-57.167872 39.120896C591.282176 558.15168 582.260736 566.951936 572.60032 575.21152zM523.077632 88.272896c1.144832 0.800768 1.961984 1.083392 2.299904 1.650688 12.068864 20.238336 24.137728 40.474624 36.016128 60.823552 0.743424 1.273856 0.679936 4.17792-0.23552 5.085184-12.52352 12.402688-25.264128 24.58624-38.160384 37.025792-7.661568-7.614464-15.742976-15.486976-23.63392-23.547904-4.950016-5.056512-12.814336-10.00448-13.508608-15.712256-0.694272-5.709824 5.752832-12.398592 9.340928-18.499584C504.389632 119.48032 513.732608 103.948288 523.077632 88.272896zM136.962048 695.420928c9.39008 1.452032 17.778688 2.779136 26.177536 4.040704 38.797312 5.828608 71.74144 22.94784 98.996224 51.140608 29.442048 30.457856 59.213824 60.563456 93.519872 85.712896 37.132288 27.219968 77.408256 47.413248 123.14624 55.740416 46.706688 8.503296 91.953152 2.84672 136.286208-13.041664 51.277824-18.378752 93.919232-48.115712 123.797504-94.447616 22.001664-34.11968 33.898496-71.749632 37.8368-112.013312 2.643968-27.041792 2.797568-54.034432-2.758656-80.758784-0.622592-2.996224-3.328-6.588416-6.047744-7.96672-34.504704-17.463296-69.193728-18.67776-103.759872-0.04096-30.52544 16.457728-57.747456 37.476352-83.0976 60.973056-3.903488 3.616768-6.463488 4.210688-11.061248 0.759808-45.449216-34.105344-95.893504-57.309184-152.547328-63.819776-25.212928-2.89792-51.11808-1.9968-76.541952-0.313344-33.406976 2.209792-66.091008 9.406464-97.46432 21.604352-27.987968 10.883072-53.735424 25.339904-75.4688 46.49984C154.673152 662.437888 146.757632 678.744064 136.962048 695.420928zM213.516288 667.465728c2.791424-2.045952 4.558848-3.751936 6.653952-4.8128 13.565952-6.868992 26.814464-14.579712 40.900608-20.164608 27.574272-10.932224 56.625152-15.835136 86.09792-18.690048 27.088896-2.623488 54.091776-2.910208 80.758784 2.803712 54.941696 11.773952 102.813696 37.044224 142.974976 76.57472 2.039808 2.00704 4.23936 3.854336 6.674432 6.055936 4.534272-4.818944 8.503296-9.162752 12.607488-13.375488 28.481536-29.22496 59.521024-55.169024 95.504384-74.850304 13.090816-7.159808 26.912768-8.781824 41.412608-6.631424 4.804608 0.712704 7.391232 2.476032 7.841792 8.35584 2.500608 32.577536-1.349632 64.376832-11.603968 95.240192-19.490816 58.66496-60.254208 96.679936-117.143552 118.556672-38.848512 14.938112-78.753792 20.72576-120.051712 13.213696-39.563264-7.196672-74.186752-25.260032-106.176512-48.941056-31.997952-23.687168-59.785216-51.959808-87.27552-80.529408-14.444544-15.01184-30.492672-27.930624-48.805888-37.85728C234.428416 677.28384 224.579584 672.876544 213.516288 667.465728zM162.537472-87.339008c-13.842432 3.510272-26.884096 6.817792-41.84064 10.60864 42.151936 129.54624 107.245568 240.748544 230.866944 310.272 56.332288-91.707392 112.400384-182.982656 169.408512-275.787776 55.863296 89.980928 111.036416 178.847744 166.832128 268.71808 11.9808-7.41376 23.875584-13.832192 34.760704-21.6576 100.313088-72.101888 167.571456-167.550976 201.744384-286.347264 2.074624-7.20896 0.567296-10.059776-6.705152-11.358208-8.441856-1.507328-16.869376-3.510272-24.997888-6.21568-6.254592-2.082816-8.638464-0.413696-10.203136 5.7344-7.604224 29.872128-18.702336 58.48064-32.58368 85.97504-34.193408 67.725312-81.516544 124.526592-142.217216 170.113024-1.716224 1.29024-3.590144 2.371584-6.207488 4.08576-60.14976-96.899072-120.035328-193.368064-180.61312-290.955264-61.216768 99.670016-121.901056 198.469632-183.21408 298.295296-6.598656-4.845568-12.81024-9.078784-18.665472-13.760512-49.758208-39.776256-86.218752-90.095616-115.214336-146.210816-15.937536-30.84288-29.16352-62.834688-38.995968-96.178176C164.21888-83.623936 163.432448-85.149696 162.537472-87.339008zM798.271488-67.418112c-50.876416 0-101.24288 0-152.276992 0 0 38.813696 0 77.309952 0 116.385792 50.65728 0 101.206016 0 152.276992 0C798.271488 10.428416 798.271488-28.092416 798.271488-67.418112zM755.228672-24.334336c0 10.479616 0 20.150272 0 29.882368-22.564864 0-44.511232 0-67.217408 0 0-4.200448 0-7.835648 0-11.470848-0.004096-18.413568-0.004096-18.413568 18.374656-18.413568C722.538496-24.334336 738.691072-24.334336 755.228672-24.334336z"  horiz-adv-x="1024" />

    
    <glyph glyph-name="wenzhangliebiaoxiangqing" unicode="&#58981;" d="M726.016 311.9104c0 0.2048-0.2048 0.4096-0.4096 0.4096L299.4176 312.32c-0.2048 0-0.4096-0.2048-0.4096-0.4096l0-42.1888c0-0.2048 0.2048-0.4096 0.4096-0.4096l426.1888 0c0.2048 0 0.4096 0.2048 0.4096 0.4096L726.016 311.9104zM555.008 199.2704c0 0.2048-0.2048 0.4096-0.4096 0.4096L299.4176 199.68c-0.2048 0-0.4096-0.2048-0.4096-0.4096l0-42.1888c0-0.2048 0.2048-0.4096 0.4096-0.4096l255.1808 0c0.2048 0 0.4096 0.2048 0.4096 0.4096L555.008 199.2704zM726.016 423.5264c0 0.2048-0.2048 0.4096-0.4096 0.4096L299.4176 423.936c-0.2048 0-0.4096-0.2048-0.4096-0.4096l0-42.1888c0-0.2048 0.2048-0.4096 0.4096-0.4096l426.1888 0c0.2048 0 0.4096 0.2048 0.4096 0.4096L726.016 423.5264zM726.016 609.8944c0 0.2048-0.2048 0.4096-0.4096 0.4096L299.4176 610.304c-0.2048 0-0.4096-0.2048-0.4096-0.4096l0-42.1888c0-0.2048 0.2048-0.4096 0.4096-0.4096l426.1888 0c0.2048 0 0.4096 0.2048 0.4096 0.4096L726.016 609.8944zM789.2992 832.512l-268.288 0-60.8256 0L234.7008 832.512C175.8208 832.512 128 783.1552 128 723.0464l0-678.0928c0-60.1088 47.8208-108.4416 106.7008-108.4416l554.7008 0c58.7776 0 106.7008 48.4352 106.7008 108.4416L896.1024 723.0464C896 783.1552 848.1792 832.512 789.2992 832.512zM852.992 44.9536c0-36.0448-28.3648-65.4336-63.6928-65.4336L234.7008-20.48c-35.328 0-63.6928 29.3888-63.6928 65.4336L171.008 723.0464c0 36.0448 28.3648 65.4336 63.6928 65.4336l230.2976 0 51.4048 0 272.9984 0c35.328 0 63.6928-29.3888 63.6928-65.4336L853.0944 44.9536z"  horiz-adv-x="1024" />

    
    <glyph glyph-name="caozuo" unicode="&#59317;" d="M800.896736 488.084567l-2.261507 0c-16.712637 0-30.429033-4.801353-43.639916-12.976546-11.561313 33.718963-40.968064 58.008158-78.842673 58.008158-16.71366 0-32.677237-4.801353-45.886073-12.976546-11.562337 33.716916-40.98239 58.008158-78.859046 58.008158-14.772448 0-28.500101-3.701299-40.651862-10.203386l0 86.7559c0 47.254234-35.742039 85.560678-83.338057 85.560678-47.599088 0-86.182848-38.306444-86.182848-85.560678L341.234755 322.536136l-52.357462 52.142567c-33.657564 33.412994-93.226265 28.655643-121.881908 0-28.656667-28.656667-47.450708-86.335321-6.415107-127.370923l240.682641-239.104703c4.965082-4.928243 10.42442-9.04091 16.165168-12.516058 43.883463-35.798321 94.167706-56.990992 200.49843-56.990992 242.907309 0 265.402649 131.048685 265.402649 292.705482L883.329167 402.524912C883.33019 449.778122 848.495824 488.084567 800.896736 488.084567L800.896736 488.084567zM837.967026 231.405603c0-136.787386-0.652869-247.673869-220.042555-247.673869-92.937692 0-148.734486 20.722974-191.003172 62.685691L199.068871 272.785036c-20.159132 20.159132-15.08865 45.934169 1.414209 62.437028 16.501836 16.502859 46.791699 17.073864 62.733786 1.24741 0 0 39.97648-39.740096 74.417897-73.977875 26.064632-25.910113 48.959062-48.670489 48.959062-48.670489L386.593825 645.694187c0 22.3838 18.278295 40.528042 40.824801 40.528042 22.544459 0 37.977963-18.145266 37.977963-40.528042l0-274.692223 0.457418 0c-0.297782-1.455141-0.457418-2.960425-0.457418-4.503571 0-12.43317 10.154267-22.515806 22.679535-22.515806 12.524245 0 22.678512 10.080589 22.678512 22.515806 0 1.543146-0.158612 3.048429-0.457418 4.503571l0.457418 0L510.754636 483.580996c0 22.3838 16.311501 40.529065 38.858006 40.529065 0 0 39.944757 0.540306 39.944757-40.529065l0-148.60248 0.457418 0c-0.297782-1.457188-0.457418-2.961448-0.457418-4.503571 0-12.435217 10.154267-22.51683 22.678512-22.51683 12.525268 0 22.679535 10.080589 22.679535 22.51683 0 1.542122-0.158612 3.047406-0.457418 4.503571l0.457418 0L634.915447 438.54836c0 22.384823 16.050558 40.531112 38.598086 40.531112 0 0 40.774659-2.538823 40.774659-40.531112l0-130.590244 0.457418 0c-0.297782-1.455141-0.457418-2.961448-0.457418-4.503571 0-12.435217 10.154267-22.515806 22.678512-22.515806 12.526291 0 22.110577 10.079566 22.110577 22.515806 0 1.542122-0.149403 3.048429-0.431835 4.503571l0.431835 0 0 89.161692c0 22.381753 16.819061 40.529065 39.364543 40.529065 0 0 39.525202 1.598404 39.525202-40.529065C837.967026 397.120832 837.967026 267.825071 837.967026 231.405603L837.967026 231.405603zM307.559794 527.131885l0 75.66633c-7.201006 16.141632-11.290137 33.974789-11.290137 52.792367 0 71.704089 58.126862 129.830951 129.830951 129.830951 71.703065 0 129.830951-58.126862 129.830951-129.830951 0-9.794064-1.157359-19.303648-3.235694-28.466332 16.32992-0.636496 31.063483-7.4159 41.788755-18.298761 4.157693 14.904455 6.604418 30.523177 6.604418 46.765093 0 96.642061-78.346369 174.989453-174.989453 174.989453-96.644107 0-174.989453-78.346369-174.989453-174.989453C251.111155 604.742497 272.930089 559.105087 307.559794 527.131885L307.559794 527.131885z"  horiz-adv-x="1024" />

    
    <glyph glyph-name="shangpin" unicode="&#59003;" d="M777.062847-86.699122 243.477019-86.699122c-62.648924 0-88.733239 44.949324-93.801802 68.715211-2.771121 15.587632-64.594005 362.087705-77.397524 457.166041-4.667236 34.740846 1.841152 62.475042 19.284125 82.438107 16.586354 18.933963 42.753413 29.375883 73.688239 29.375883 7.150352 0 12.830301-0.558821 15.924803-0.956751l658.191746 0c3.093303 0.401328 8.773252 0.956751 15.920006 0.956751 30.939423 0 57.101885-10.44192 73.664855-29.388674 17.471954-19.950274 23.95256-47.68447 19.285325-82.425316-12.776737-95.064346-74.599422-441.577411-77.210851-456.286238C865.796086-41.749798 839.712971-86.699122 777.062847-86.699122L777.062847-86.699122zM165.249857 496.378551c-8.664725 0-24.402855-1.403648-32.562523-10.720731-8.268194-9.444197-7.976392-26.526415-6.266951-39.206218 12.616846-93.906931 76.221322-450.365852 76.864286-453.95282 1.276535-4.721998 8.774451-24.576737 40.19235-24.576737l533.585829 0c34.566964 0 40.142184 24.416845 40.351042 25.455341 0.483072 2.706965 64.088748 359.166085 76.677613 453.072817 1.709441 12.679803 2.001043 29.762021-6.23897 39.206218-8.164265 9.320481-23.897597 10.720731-32.567119 10.720731-5.200474 0-8.878181-0.492466-9.598292-0.601992-1.413042-0.222849-2.986975-0.360556-4.403614-0.360556L179.251763 495.414605c-1.517971 0-3.040738 0.137707-4.558709 0.387337C174.159616 495.881488 170.450331 496.378551 165.249857 496.378551L165.249857 496.378551zM242.035996 351.040491c0-14.94107 6.153828-29.790202 16.718265-40.355639 10.565636-10.565437 25.415768-16.713468 40.355639-16.713468 14.94107 0 29.791202 6.149231 40.355639 16.713468 10.565636 10.565636 16.713468 25.414569 16.713468 40.355639 0 14.94107-6.148032 29.790202-16.713468 40.355639-10.564437 10.565636-25.414569 16.713468-40.355639 16.713468-14.939871 0-29.790202-6.148032-40.355639-16.713468C248.189823 380.830693 242.035996 365.98176 242.035996 351.040491L242.035996 351.040491zM664.360859 351.040491c0-14.94107 6.148032-29.790202 16.713468-40.355639 10.564437-10.565437 25.414569-16.713468 40.355639-16.713468 14.939871 0 29.790202 6.149231 40.355639 16.713468 10.564437 10.565636 16.713468 25.414569 16.713468 40.355639 0 14.94107-6.15023 29.790202-16.713468 40.355639-10.565636 10.565636-25.415768 16.713468-40.355639 16.713468-14.94127 0-29.791202-6.148032-40.355639-16.713468C670.508891 380.830693 664.360859 365.98176 664.360859 351.040491L664.360859 351.040491zM753.781232 588.160723c-15.095165 0-27.309484 12.228309-27.309484 27.310683 0 109.762781-97.002432 199.066633-216.213008 199.066633-119.216371 0-216.189623-89.303852-216.189623-199.066633 0-15.082374-12.215518-27.310683-27.310683-27.310683-15.096365 0-27.311683 12.228309-27.311683 27.310683 0 139.886557 121.482435 253.6878 270.811989 253.6878 149.326157 0 270.832975-113.801243 270.832975-253.6878C781.091916 600.388832 768.878796 588.160723 753.781232 588.160723L753.781232 588.160723z"  horiz-adv-x="1024" />

    
    <glyph glyph-name="xinxi2" unicode="&#58903;" d="M870.652165 823.09561 149.713019 823.09561c-42.361768 0-76.70412-34.341393-76.70412-76.70412l0-575.246382c0-42.361768 34.341393-76.70412 76.70412-76.70412l157.742981 0L307.456-34.277154c0-10.590921 8.585109-19.17603 19.17603-19.17603 4.652105 0 8.914936 1.657768 12.236225 4.413363l0.086292-0.04027 184.871311 143.521079 346.826307 0c42.361768 0 76.70412 34.342352 76.70412 76.70412L947.356285 746.391491C947.356285 788.754217 913.012974 823.09561 870.652165 823.09561zM874.426966 711.910112l0-506.16761c0-21.181843-17.170217-38.35206-38.35206-38.35206L503.370787 167.390442l-88.064-72.949453L380.004674 65.198502l0 29.242487 0 72.949453L184.089888 167.390442c-21.180884 0-38.35206 17.170217-38.35206 38.35206L145.737828 711.910112c0 21.180884 17.171176 38.35206 38.35206 38.35206l651.985019 0C857.256749 750.262172 874.426966 733.090996 874.426966 711.910112L874.426966 711.910112zM342.690996 510.115955c-9.370367 8.330067-21.71206 13.389663-35.235955 13.389663-17.194187 0-32.478442-8.179536-42.172884-20.859685-6.825708-8.92836-10.880479-20.08785-10.880479-32.193678 0-15.594906 6.728869-29.618337 17.440599-39.325243 9.414472-8.531416 21.906697-13.729079 35.613723-13.729079 16.236345 0 30.768899 7.293603 40.500734 18.782921 7.830532 9.244764 12.552629 21.206772 12.552629 34.271401C360.508404 486.230292 353.621333 500.398502 342.690996 510.115955zM545.450667 510.499476c-9.315715 8.101873-21.484824 13.007101-34.800659 13.007101-14.088629 0-26.894382-5.491056-36.394187-14.450097-10.258217-9.673348-16.660135-23.390921-16.660135-38.603266 0-13.939056 5.375041-26.622082 14.166292-36.090247 9.688689-10.434637 23.526112-16.964075 38.88803-16.964075 16.071431 0 30.472629 7.145948 40.202547 18.433918 8.008869 9.291745 12.850816 21.390861 12.850816 34.620404C563.703371 486.438352 556.633169 500.772434 545.450667 510.499476zM745.426936 513.085363c-8.82385 6.547655-19.751311 10.421213-31.581963 10.421213-15.313019 0-29.109213-6.487251-38.793109-16.862442-8.84782-9.478712-14.261213-22.202007-14.261213-36.190921 0-14.088629 5.492015-26.895341 14.451056-36.394187 9.674307-10.257258 23.390921-16.659176 38.603266-16.659176 15.099206 0 28.724734 6.307955 38.385618 16.43194 9.087521 9.521858 14.667745 22.420614 14.667745 36.622382C766.898337 487.921618 758.455131 503.417768 745.426936 513.085363z"  horiz-adv-x="1024" />

    
    <glyph glyph-name="tubiao82" unicode="&#58962;" d="M512-128C229.679795-128 0 101.679795 0 384S229.679795 896 512 896C794.34035 896 1024.020146 666.320205 1024.020146 384S794.34035-128 512-128zM512 865.781625C246.360338 865.781625 30.218375 649.639662 30.218375 384S246.360338-97.781625 512-97.781625c265.679953 0 481.801771 216.141963 481.801771 481.781625S777.679953 865.781625 512 865.781625zM518.20484 409.887075c-41.056699-11.865749-79.635491-23.046547-122.122526-35.315208 0 37.591658 0 72.383081 0 111.042455-28.506 0-53.728271 0-89.970175 0 37.108164 40.532914 78.708794 69.018768 94.382058 107.940035 15.048751 37.450639 3.223293 85.679166 3.223293 133.061578 20.830533 0 48.409837 0 82.073106 0-5.660909-19.782963-10.939052-38.256463-16.217195-56.709817 1.974267-1.148298 3.948534-2.276451 5.942947-3.424749 30.601141 32.031477 61.161991 64.083101 87.02892 91.118473 94.220893-87.39154 185.27893-171.882117 276.336966-256.372693-2.034704-3.928389-4.089553-7.856777-6.164548-11.785166-24.456738 0-48.953767 0-80.46146 0 0-27.357702 1.329608-49.90061-0.402912-72.201771-1.531064-19.541216-6.486878-38.820539-8.743183-51.492111-43.373441 15.270352-78.668503 27.659886-117.186858 41.238009-0.987134 21.193154-2.135432 45.025379-3.404604 71.1542-33.703561 0-65.573874 0-101.150974 0C520.340271 455.677985 519.332992 434.484832 518.20484 409.887075zM196.923077 92.473264c54.0506 95.006571 110.840999 175.044973 199.239819 227.121306 81.589612 48.047216 168.376785 57.092583 258.66929 30.863034 10.052646-2.941255 25.5446-17.42593 24.134409-23.086838-2.840527-11.664293-14.464529-28.808184-24.033681-29.896046-45.42829-5.157269-91.400512-5.620618-134.129294-7.635176 72.604682-40.271021 189.42892-16.136612 262.416368 56.609089 37.772969 37.652095 37.772969 37.652095 100.405587 29.593862-27.115955-35.980012-55.944285-66.278969-75.30419-101.735196-34.287783-62.813929-84.530868-83.422861-153.388471-79.232579-51.230218 3.10242-103.08495-5.157269-154.577061-4.029117-34.02589 0.745387-50.787016-13.45725-54.594531-44.703049-5.51989-45.448436-29.815463-58.422192-74.317057-54.937006C316.285658 95.797285 260.522683 92.473264 196.923077 92.473264z"  horiz-adv-x="1025" />

    
    <glyph glyph-name="daiban" unicode="&#58954;" d="M372.674303 278.158417 208.583061 278.158417l0-55.112202 158.683069 0C367.966071 241.817744 369.801882 260.210649 372.674303 278.158417L372.674303 278.158417zM208.583061 492.135836l353.807095 0c29.618575 13.797237 61.45363 22.044062 94.675266 23.715121l0 31.399127L208.583061 547.250084 208.583061 492.135836 208.583061 492.135836zM158.507572 126.509555c-20.847817 0-29.540803 8.698103-29.540803 29.526477l0 593.077573c0 20.828374 8.694009 29.52443 29.540803 29.52443l548.628222 0c20.826328 0 29.54592-8.696056 29.54592-29.52443l0-237.22489c23.485901-4.300956 33.708729-11.326976 54.92596-20.72502L791.607674 788.783093c0 24.76708-20.083407 44.847417-44.847417 44.847417L118.888226 833.630511c-24.769127 0-44.852534-20.081361-44.852534-44.847417l0-672.728658c0-24.758893 20.083407-44.847417 44.852534-44.847417l283.845697 0c-11.346419 21.157879-20.263509 31.520901-26.356274 55.302537L178.973696 126.509555 158.507572 126.509555zM208.583061 681.794383l448.481338 0 0-55.113225-448.481338 0 0 55.113225ZM679.400103 475.764983c-148.146085 0-268.25358-120.091122-268.25358-268.258697 0-148.144038 120.112612-268.257673 268.25358-268.257673 148.164504 0 268.25665 120.114658 268.25665 268.257673C947.656753 355.673861 827.564607 475.764983 679.400103 475.764983zM679.87901-9.252479C560.885895-9.252479 464.4311 87.198224 464.4311 206.189292c0 118.999255 96.455819 215.45712 215.44791 215.45712 119.001301 0 215.452004-96.457866 215.452004-215.45712C895.32999 87.198224 798.875195-9.252479 679.87901-9.252479zM208.583061 412.706809l0-55.113225 197.292412 0c8.973372 19.528775 19.332301 37.97387 30.9325 55.113225L208.583061 412.706809zM681.543929 181.487703 681.543929 306.070116 627.394658 306.070116 627.394658 126.317173 807.143509 126.317173 807.143509 181.487703Z"  horiz-adv-x="1024" />

    
    <glyph glyph-name="tubiao-youhuiquan" unicode="&#58939;" d="M819.2-36.73h-730.157c-48.974 0-89.043 40.070-89.043 89.043v178.087h22.261c37.843 0 66.783 28.939 66.783 66.783s-28.939 66.783-66.783 66.783h-22.261v178.087c0 48.974 40.070 89.043 89.043 89.043h741.287l-6.678-26.713c0-2.226 0-4.452 0-6.678 0-15.583 11.13-28.939 26.713-33.391l17.809-4.452v-82.365l-17.809-4.452c-15.583-2.226-26.713-17.809-26.713-33.391s11.13-28.939 26.713-33.391l17.809-4.452v-82.365l-17.809-2.226c-15.583-2.226-26.713-17.809-26.713-33.391s11.13-28.939 26.713-33.391l17.809-4.452v-82.365l-17.809-2.226c-15.583-2.226-26.713-17.809-26.713-33.391s11.13-28.939 26.713-33.391l17.809-4.452v-82.365l-17.809-2.226c-13.357-2.226-22.261-13.357-26.713-26.713l-4.452-15.583zM44.522 188.104v-135.791c0-24.487 20.035-44.522 44.522-44.522h696.765c6.678 15.583 20.035 28.939 37.843 37.843v15.583c-26.713 13.357-44.522 40.070-44.522 71.235s17.809 57.878 44.522 71.235v15.583c-26.713 13.357-44.522 40.070-44.522 71.235 0 31.165 17.809 57.878 44.522 71.235v15.583c-26.713 13.357-44.522 40.070-44.522 71.235 0 31.165 17.809 57.878 44.522 71.235v15.583c-22.261 11.13-40.070 33.391-44.522 60.104h-690.087c-24.487 0-44.522-20.035-44.522-44.522v-144.696c51.2-11.13 89.043-55.652 89.043-109.078s-37.843-100.174-89.043-109.078zM296.070 341.704h311.652v-44.522h-311.652v44.522zM296.070 230.4h311.652v-44.522h-311.652v44.522zM429.635 319.443h44.522v-200.348h-44.522v200.348zM342.817 419.617l37.843 22.261 66.783-111.304-37.843-22.261-66.783 111.304zM543.165 441.878l37.843-22.261-66.783-111.304-37.843 22.261 66.783 111.304zM934.957 809.183h-712.348c-48.974 0-89.043-40.070-89.043-89.043v-111.304h44.522v111.304c0 24.487 20.035 44.522 44.522 44.522h712.348c24.487 0 44.522-20.035 44.522-44.522v-489.739c0-24.487-20.035-44.522-44.522-44.522h-122.435v-44.522h122.435c48.974 0 89.043 40.070 89.043 89.043v489.739c0 48.974-40.070 89.043-89.043 89.043z"  horiz-adv-x="1024" />

    
    <glyph glyph-name="billpayments" unicode="&#58884;" d="M797.93152 258.40639999999996a31.07328 31.07328 0 0 0-16.45568 4.66944c-6.9632 4.30592-11.7504 10.98752-13.48608 18.81088a28.75392 28.75392 0 0 0 4.08576 22.15424c31.63136 48.26112 48.35328 104.17152 48.35328 161.68448 0 166.144-139.01824 301.312-309.89312 301.312-170.89024 0-309.91872-135.168-309.91872-301.312 0-16.384-13.75232-29.71648-30.65344-29.71648-16.90624 0-30.65344 13.32736-30.65344 29.71136 0 198.912 166.53312 360.73984 371.2256 360.73984 204.67712 0 371.2-161.82784 371.2-360.73984 0-68.8128-20.0192-135.7312-57.89184-193.536-5.64736-8.6272-15.3344-13.77792-25.91232-13.77792z m-281.9072 16.7168c-12.21632 0-22.15424 9.6256-22.15424 21.45792v75.96544H428.32384c-12.21632 0-22.15424 9.6256-22.15424 21.4528 0 11.83232 9.93792 21.4528 22.15424 21.4528H493.8752V469.97504H428.32384c-12.21632 0-22.15424 9.6256-22.15424 21.4528 0 11.83232 9.93792 21.46304 22.15424 21.46304H493.8752v27.0848l0.02048 0.07168c0.09216 0.29696 0.22528 0.74752 0.26112 1.31584l0.08192 1.3312-82.11968 79.81568a20.96128 20.96128 0 0 0 0 30.27968c4.18816 4.0704 9.76384 6.31296 15.6928 6.31296s11.50464-2.24256 15.69792-6.31296l72.89856-70.8608 72.15616 70.13376a22.33856 22.33856 0 0 0 15.68768 6.31808c5.9392 0 11.50976-2.24256 15.70304-6.31808a20.95616 20.95616 0 0 0 0-30.27456c-0.01024-0.01024-20.23424-19.82976-40.45824-39.69024-10.112-9.92768-20.224-19.8656-27.80672-27.3408-3.79392-3.7376-6.95808-6.8608-9.1648-9.05216-4.33664-4.3008-4.33664-4.3008-4.33664-5.56032v-27.25376h65.54112c12.21632 0 22.15936-9.6256 22.15936-21.45792s-9.94304-21.45792-22.15936-21.45792h-65.54112v-54.51264h65.54112c12.21632 0 22.15936-9.6256 22.15936-21.4528 0-11.83232-9.94304-21.4528-22.15936-21.4528h-65.54112v-75.97056c0-11.8272-9.93792-21.4528-22.15936-21.4528z m50.08896-329.91232v0.39936c-0.768 0-76.83072 0.14848-112.0256 0.3328-10.5984 0.05632-35.90144 3.65056-52.64384 8.19712-39.59296 10.752-99.4816 32.06656-159.93344 72.56576-73.3696 49.14688-128.13824 113.4848-162.76992 191.232-8.91392 20.0192-17.152 85.6576 7.38304 121.984 11.63264 17.18784 29.30176 26.65472 49.7664 26.65472 26.9312 0 56.48384-15.98464 92.99968-50.304 19.88608-18.70848 34.432-37.30432 48.50176-55.28576l0.1536-0.19968c46.1312-59.0848 85.96992-110.11072 316.27264-124.16l6.08256-0.36864-3.54304 4.95616c-13.02528 18.20672-21.9648 31.24224-26.56256 38.7328-11.09504 18.2272-15.39584 48.512-2.13504 71.09632 10.1888 17.41824 29.07648 27.40224 51.82976 27.40224 27.66336 0 63.1296-14.30528 108.416-43.73504l0.7168-0.47104h0.1536l0.3072-0.1536c25.66144-13.50656 115.7632-58.83904 197.63712-75.17184 14.1824-2.82624 24.4736-15.06304 24.4736-29.10208v-154.88c0-16.384-13.75232-29.71648-30.65344-29.71648H566.1184z m-433.024 321.05984c-0.41984-1.88416-2.56-12.9536 1.98656-24.90368l0.06144-0.1536c65.40288-146.82112 201.49248-205.79328 276.79232-227.87584l0.11264-0.03072c34.33984-8.56576 96.38912-8.66816 99.01568-8.66816h378.8288v101.62176l-2.176 0.5632c-75.22304 19.34336-149.44256 55.33184-177.8688 69.90848a627.1744 627.1744 0 0 0-14.0288 7.38816c-17.536 11.33056-40.63232 20.87936-42.17344 21.50912-4.75648 2.1504-8.7552 3.23584-11.8784 3.23584-4.52608 0-6.42048-2.304-7.1424-3.6864-2.00704-3.80928-0.384-9.57952 4.8128-17.16224 0.32256-0.47104 32.57344-47.80544 46.60224-66.57024 6.88128-9.21088 7.76192-21.18144 2.304-31.24224-3.95776-7.2704-11.6736-15.92832-25.96352-15.92832-0.63488 0-1.28 0.01536-1.93536 0.0512-320.68608 8.37632-374.64064 77.43488-431.7696 150.54336-13.29152 17.04448-25.82016 33.1008-42.46528 48.74752-16.98816 15.96416-17.14688 15.96416-18.65728 15.96416h-1.85344c-3.5328 1.5872-7.0656 2.40128-10.46016 2.40128-12.13952 0-21.0176-10.32192-22.144-25.71264z"  horiz-adv-x="1024" />

    
    <glyph glyph-name="shanchu" unicode="&#58913;" d="M847.743 672.047H640.639c-3.132 68.921-60.177 124.029-129.858 124.029s-126.726-55.108-129.858-124.029H173.256c-17.673 0-32-14.327-32-32s14.327-32 32-32h674.487c17.673 0 32 14.327 32 32s-14.327 32-32 32z m-336.962 60.03c34.379 0 62.689-26.426 65.718-60.029H445.064c3.029 33.603 31.338 60.029 65.717 60.029zM767.743 544.21c-17.673 0-32-14.327-32-32v-478.173H288.256V512.21c0 17.673-14.327 32-32 32s-32-14.327-32-32v-510.173c0-17.673 14.327-32 32-32h511.487c17.673 0 32 14.327 32 32V512.21c0 17.673-14.327 32-32 32zM449.306 163.198V447.792c0 17.673-14.327 32-32 32s-32-14.327-32-32v-284.593c0-17.673 14.327-32 32-32s32 14.326 32 31.999zM640.84 163.198V447.792c0 17.673-14.327 32-32 32s-32-14.327-32-32v-284.593c0-17.673 14.327-32 32-32s32 14.326 32 31.999z"  horiz-adv-x="1024" />

    
    <glyph glyph-name="renwu1" unicode="&#58945;" d="M831.825474 832.059831H191.939717C121.2479 832.059831 63.940169 774.7521 63.940169 704.060283v-639.885757C63.940169-6.517291 121.2479-63.825022 191.939717-63.825022h639.885757c70.691817 0 127.999548 57.307731 127.999548 127.999548V704.060283C959.825022 774.7521 902.517291 832.059831 831.825474 832.059831zM895.884854 64.001129A63.835408 63.835408 0 0 0 831.912173 0.115146H192.087827c-17.112123 0-33.270563 6.574639-45.372232 18.67631S127.880338 46.889006 127.880338 64.001129V703.998871A64.236389 64.236389 0 0 0 192.087827 768.119662h639.824346A64.037705 64.037705 0 0 0 895.884854 703.998871v-639.997742zM791.998335 544.148449h-255.999097a31.970084 31.970084 0 0 1 0-63.940169h255.999097a31.970084 31.970084 0 0 1 0 63.940169zM791.998335 288.026529h-255.999097a31.970084 31.970084 0 0 1 0-63.940169h255.999097a31.970084 31.970084 0 0 1 0 63.940169zM344.001722 368.002314c-61.855792 0-111.985607-50.144265-111.985607-111.985606s50.144265-111.985607 111.985607-111.985607 111.985607 50.144265 111.985606 111.985607-50.129815 111.985607-111.985606 111.985606z m33.982213-145.982269a48.045438 48.045438 0 1 0 14.088511 33.982213 47.745605 47.745605 0 0 0-14.088511-33.985826zM417.395643 598.605965L311.999125 493.21306 270.6078 534.607997a31.970084 31.970084 0 1 1-45.213286-45.213285l63.997968-64.001581a31.970084 31.970084 0 0 1 45.213286 0l127.999548 127.999549a31.970084 31.970084 0 0 1-45.209673 45.213285z"  horiz-adv-x="1024" />

    
    <glyph glyph-name="dui" unicode="&#58917;" d="M356.633486 29.39674a43.335582 43.335582 0 0 0-30.655697 12.70156L16.595837 351.480251a43.342807 43.342807 0 0 0 0 61.296945 43.328357 43.328357 0 0 0 61.30417 0L356.626261 134.050942l590.788683 590.795908a43.342807 43.342807 0 0 0 61.296945 0 43.335582 43.335582 0 0 0 0-61.30417l-621.437155-621.44438a43.277782 43.277782 0 0 0-30.641248-12.70156z"  horiz-adv-x="1024" />

    
    <glyph glyph-name="zhifu-01" unicode="&#58907;" d="M376.35733333 307.19039999999995c-12.07786667 0-21.8688-9.55093333-21.8688-21.33333333 0-11.78133333 9.792-21.33333333 21.8688-21.33333334h115.0528v-151.2768c0-12.07786667 9.552-21.8688 21.33333334-21.8688 11.7824 0.00106667 21.3344 9.79093333 21.33333333 21.8688V264.52373333h114.5888c12.07786667 0 21.8688 9.552 21.8688 21.33333334-0.00106667 11.7824-9.79093333 21.3344-21.8688 21.33333333H534.0768v91.75786667a21.38026667 21.38026667 0 0 1 6.63146667 1.0432h108.1792c12.07786667 0 21.8688 9.552 21.8688 21.33333333-0.00106667 11.78133333-9.79093333 21.33333333-21.8688 21.33333333h-104.4736l119.2672 119.26826667c8.5408 8.53973333 8.70933333 22.2176 0.3776 30.54826667-8.33173333 8.33066667-22.00853333 8.16213333-30.54826667-0.37866667L512.8672 471.4496 392.15573333 592.1610666700001c-8.53973333 8.53973333-22.2176 8.70933333-30.54826666 0.37866666-8.33173333-8.33173333-8.16106667-22.00853333 0.37866666-30.54826666l119.3344-119.3344h-104.96213333c-12.07786667 0-21.8688-9.55093333-21.8688-21.33333334 0-11.78133333 9.792-21.33333333 21.8688-21.33333333h108.66666667c2.06826667-0.66666667 4.21973333-1.01546667 6.38506666-1.0336v-91.7664H376.35733333zM511.23093333 862.63573333c-263.91893333 0-477.86666667-213.9488-477.86666666-477.86666666 0-85.6608 22.55893333-166.0448 62.03093333-235.5712 0.97066667-3.1008 2.62933333-5.88906667 4.77333333-8.2272 0.2528-0.42346667 0.49706667-0.8544 0.75093334-1.27786667l0.24853333 0.24746667c3.9264-3.75466667 9.23733333-6.0736 15.09866667-6.0736 12.0768 0 21.86666667 9.78986667 21.86666666 21.86666666 0 5.8624-2.31893333 11.17333333-6.07466666 15.09866667l0.06826666 0.06826667c-35.70986667 63.16266667-56.096 136.13333333-56.096 213.86773333 0 240.35413333 194.84586667 435.2 435.2 435.2 240.35306667 0 435.2-194.84586667 435.2-435.2 0-240.35306667-194.84693333-435.2-435.2-435.2-89.14346667 0-172.0224 26.80853333-241.02826666 72.7936l-0.19626667-0.19626667c-3.86666667 3.45066667-8.9504 5.56693333-14.5408 5.56693334-12.0768 0-21.86666667-9.78986667-21.86666667-21.86666667 0-10.06613333 6.8096-18.52053333 16.0672-21.06453333 75.14986667-49.24586667 165.00586667-77.89973333 261.56373334-77.89973334 263.91786667 0 477.86666667 213.9488 477.86666666 477.86666667 0.00106667 263.92-213.94773333 477.86773333-477.8656 477.86773333z"  horiz-adv-x="1024" />

    
    <glyph glyph-name="tanhao" unicode="&#58909;" d="M510.9 831.3C263.8 831.3 63.4 631 63.4 383.9s200.3-447.5 447.4-447.5 447.4 200.3 447.4 447.5S758 831.3 510.9 831.3z m51.8-732.2H457.2V223.5h105.5v-124.4z m1.9 355.1l-25.4-186.6h-58.6l-23.4 186.6v197h107.4v-197z"  horiz-adv-x="1024" />

    
    <glyph glyph-name="xiazai" unicode="&#58938;" d="M389.842311 526.724609c0 0-54.207599 52.138474-127.760802 9.55461-65.813938-40.649815-54.193273-115.050316-54.193273-115.050316S61.690526 392.826016 61.690526 243.776352c3.281743-148.84091 158.777213-150.336984 158.777213-150.336984l309.799812 0.467651L386.531915 223.831091l79.646991-0.864694 0.013303 157.420309 102.108562 0.694825 0.732687-157.684322 77.813227-1.106194L530.266527 93.439368l262.197654 0c0 0 144.715963-0.148379 165.04087 141.442406 9.680477 154.855904-139.875724 185.378058-139.875724 185.378058s17.017582 229.233891-193.000666 255.367085C444.611705 694.012659 389.842311 526.724609 389.842311 526.724609z"  horiz-adv-x="1024" />

    
    <glyph glyph-name="promotion" unicode="&#59128;" d="M978.95235313 784.45833c-0.731025 1.8505875-1.50618 3.67910906-2.32354688 5.48460656-0.81736688 1.8054975-1.67886375 3.58797094-2.57969344 5.34550125s-1.84387125 3.49107656-2.82720562 5.19776157c-0.49118719 0.85382156-0.99292781 1.70092875-1.50234282 2.54131968-21.47698031 35.3060175-60.31916437 58.93578094-104.5788 58.93578094l0 0L154.33014219 861.96329906l-0.00095907 0c-44.25867656 0-83.10181969-23.6297625-104.57688187-58.93578094-0.51133406-0.84039094-1.01307375-1.68749719-1.50426188-2.54131968-0.98333438-1.70764406-1.92637594-3.44023125-2.82720562-5.19776157-8.56508156-16.69845469-13.40116781-35.61205031-13.40116781-55.63369593l0-634.32352313 0-78.42114844c0-67.44330094 54.86813437-122.31143531 122.31047625-122.31143531l88.7034675 0c0.44417906-0.02782125 0.89027719-0.04700812 1.34117156-0.04700812 0.45185438 0 0.8979525 0.01918688 1.34117156 0.04700812l528.03612 0c0.44417906-0.02782125 0.89027719-0.04700812 1.34117156-0.04700812s0.8979525 0.01918688 1.34117157 0.04700812l88.7044275 0c67.44138187 0 122.30951625 54.86813437 122.30951625 122.31143531l0 78.42114844L987.44836156 739.65474187C987.45028063 755.46100125 984.43696062 770.5765275 978.95235313 784.45833zM865.14076344-53.190901879999956l-88.83777657 1e-8L243.16600063-53.190901879999956l-88.8368175 1e-8c-44.16657937 0-80.09905312 35.93247375-80.09905313 80.10001218l0 77.09148938c0.02686219 0.44034187 0.04604906 0.88260281 0.04604906 1.32966 0 0.44801625-0.01822781 0.89411438-0.04604906 1.33637531L74.23013 739.65474187c0 13.80217594 3.50930438 26.79945656 9.681765 38.14857375 13.58056594 24.96613781 40.05288375 41.95047938 70.41728719 41.95047938l710.81062125 0c30.36344437 0 56.83576219-16.9833825 70.41632812-41.95047938 0.61878094-1.13491125 1.20878156-2.28613219 1.77096094-3.45366187 1.12627781-2.33409938 2.14318875-4.7305575 3.04306031-7.18265719 3.14954812-8.58330938 4.86774469-17.85063469 4.86774469-27.51225375l0-632.98810687c-0.02782125-0.44226094-0.04508906-0.88835812-0.04508906-1.33637531 0-0.44705719 0.01918688-0.88931812 0.04508906-1.32966l0-77.09148938C945.2388575-17.258428119999962 909.30638375-53.190901879999956 865.14076344-53.190901879999956zM268.43529313 377.04039188c0 33.69622781 0.73294406 54.20714156 2.92985625 90.10028249-23.44077094-41.7538125-39.55594031-65.19458344-74.71709625-106.94839593-11.721345 22.70878594-14.65024219 27.10357125-30.03438657 43.21970062 54.94008563 55.67111062 101.0886825 126.72732563 134.78491032 206.57215031 16.84811344 40.28888437 29.30048344 79.84578469 32.96424281 104.01853969l49.81139812-19.04598562c-24.172755-67.39245562-45.41757188-116.47186875-69.59032781-161.1555375l0-394.099275c0-32.96328375 1.46492812-60.79979812 5.12772844-85.70549719l-56.40405469 0c3.66184125 27.10357125 5.12772844 48.34742906 5.12772844 87.90336937L268.43529313 377.04039188zM633.23408469 336.0195225l123.06260625 0c27.83651438 0 46.14955688 1.46492812 65.19650156 4.39478438l0-50.54434125c-20.51187375 2.92985625-38.82587531 4.39478438-65.19650156 4.39478437L633.23408469 294.26475094l0-153.83089688c41.01990937-8.79052875 77.6479125-12.45237 130.38916687-12.45237 31.49739656 0 53.4741975 0.73294406 93.76308282 3.66184125-8.79148781-20.51091375-11.720385-30.0334275-14.65024219-49.81139812-28.56849937-1.46492812-41.02182844-2.19787219-58.60288594-2.19787219-101.8206675 0-183.13138031 16.11612937-237.33852187 48.34742906-35.89314 20.51091375-64.46163938 49.81139812-88.63535344 90.1002825-22.70974594-65.9275275-44.68462875-106.21641188-87.17138531-158.22568125-10.98744188 13.91825719-20.50995469 21.24385781-36.62608407 32.23129969 43.21970063 47.614485 70.32327094 96.69389813 90.83322563 168.48113813 12.45237 42.48675656 19.77892969 90.10124156 19.77892969 126.72732562 0 2.93081625 0 4.39478438-0.73294407 8.79052875l51.27632625-6.59265656c-2.93081625-11.720385-2.93081625-13.18531313-12.45237-68.85738375-2.93081625-18.3130425-5.8606725-31.49835563-10.25449781-51.27632625 31.49739656-58.60288594 62.99671125-89.3682975 114.2730375-112.80906844L587.08356875 451.75844719l-87.90241031 0c-43.21970063 0-55.67206969-0.73294406-76.9168875-2.93081625 2.19787219 16.84811344 2.93081625 31.49835563 2.93081625 58.60192687L425.19508719 623.90238563c0 28.56849937-0.73294406 40.28888437-2.93081625 57.86898281 23.44268906-2.92985625 44.68462875-3.66280031 79.11284062-3.66280031L720.40355094 678.10856812c35.16019687 0 55.67206969 0.73294406 79.11284062 3.66280032-2.19787219-16.11517031-2.93081625-29.30048344-2.93081625-59.33487l0-115.00694063c0-26.37062719 0.73294406-42.4857975 2.93081625-58.60192687-22.70782688 2.19787219-42.48675656 2.93081625-76.18202437 2.93081625l-90.1002825 0L633.23408469 336.0195225zM469.880675 493.51226063l281.29020656 0L751.17088156 635.6218125 469.880675 635.6218125 469.880675 493.51226063z"  horiz-adv-x="1024" />

    
    <glyph glyph-name="caiwushuju" unicode="&#58895;" d="M748.8 128h-512c-12.8 0-25.6 12.8-25.6 25.6V582.4c0 12.8 12.8 25.6 25.6 25.6s25.6-12.8 25.6-25.6v-396.8h486.4c12.8 0 25.6-12.8 25.6-25.6 0-19.2-12.8-32-25.6-32z m-358.4 83.2h-51.2c-12.8 0-25.6 12.8-25.6 25.6V531.2c0 12.8 12.8 25.6 25.6 25.6h51.2c12.8 0 25.6-12.8 25.6-25.6v-294.4c0-12.8-12.8-25.6-25.6-25.6z m140.8 0h-51.2c-12.8 0-25.6 12.8-25.6 25.6v51.2c0 12.8 12.8 25.6 25.6 25.6h51.2c12.8 0 25.6-12.8 25.6-25.6v-51.2c6.4-12.8-6.4-25.6-25.6-25.6z m128 121.6C576 332.8 512 403.2 512 486.4 512 569.6 576 640 659.2 640c83.2 0 153.6-70.4 153.6-153.6 0-83.2-70.4-153.6-153.6-153.6z m57.6 256l-57.6-83.2-51.2 83.2-25.6-19.2 44.8-70.4h-44.8v-25.6h57.6v-38.4h-57.6v-25.6h57.6v-57.6h32V422.4h57.6v19.2h-57.6v38.4h57.6v25.6h-44.8l44.8 70.4-12.8 12.8zM512 876.8C236.8 876.8 19.2 659.2 19.2 384s224-492.8 492.8-492.8c275.2 0 492.8 224 492.8 492.8S787.2 876.8 512 876.8z m0-947.2C262.4-70.4 57.6 134.4 57.6 384 57.6 633.6 262.4 838.4 512 838.4c249.6 0 454.4-204.8 454.4-454.4 0-249.6-204.8-454.4-454.4-454.4z"  horiz-adv-x="1024" />

    
    <glyph glyph-name="piaojuguanli" unicode="&#58894;" d="M947.2 819.2H76.8C38.4 819.2 6.4 793.6 6.4 748.8v-742.4c0-38.4 25.6-70.4 70.4-70.4h870.4c38.4 0 70.4 25.6 70.4 70.4V755.2c-6.4 32-32 64-70.4 64z m25.6-262.4v-524.8c0-19.2-12.8-32-32-32H230.4v76.8h-44.8V0H89.6c-19.2 0-38.4 6.4-38.4 25.6V748.8c0 19.2 12.8 32 32 32h102.4v-70.4h44.8v64h704c19.2 0 32-12.8 32-32v-185.6h6.4zM806.4 428.8h-140.8l108.8 185.6c0 6.4 6.4 6.4 6.4 12.8 0 12.8-12.8 25.6-25.6 25.6s-19.2-6.4-19.2-12.8L627.2 448s-57.6 102.4-108.8 192c-6.4 12.8-12.8 12.8-19.2 12.8-12.8 0-25.6-12.8-25.6-25.6 0-6.4 0-6.4 6.4-12.8l108.8-185.6H435.2c-12.8 0-25.6-12.8-25.6-25.6s12.8-19.2 25.6-19.2h160v-64H454.4c-12.8 0-25.6-6.4-25.6-25.6 0-12.8 12.8-25.6 25.6-25.6h140.8v-134.4c0-12.8 12.8-25.6 25.6-25.6s25.6 12.8 25.6 25.6V275.2h140.8c12.8 0 25.6 12.8 25.6 25.6s-12.8 25.6-25.6 25.6h-140.8V384h160c12.8 0 25.6 6.4 25.6 25.6 0 12.8-6.4 19.2-25.6 19.2zM185.6 640h44.8v-70.4h-44.8V640zM185.6 499.2h44.8v-70.4h-44.8V499.2zM185.6 358.4h44.8v-70.4h-44.8V358.4zM185.6 217.6h44.8v-70.4h-44.8v70.4z"  horiz-adv-x="1024" />

    
    <glyph glyph-name="cuohao" unicode="&#58930;" d="M882.048 686.784L209.28 13.952c-18.624-18.56-48.768-18.56-67.328 0s-18.56 48.704 0 67.328L814.72 754.048c18.624 18.56 48.768 18.56 67.328 0 18.56-18.56 18.56-48.704 0-67.264zM882.048 13.952c-18.56-18.56-48.704-18.56-67.328 0L141.952 686.784c-18.56 18.624-18.56 48.704 0 67.264 18.56 18.56 48.704 18.56 67.328 0L882.048 81.28c18.56-18.624 18.56-48.768 0-67.328z"  horiz-adv-x="1024" />

    
    </font>
</defs>
</svg>
